3d-tracker.ru • Просмотр темы - Арти: приключение начинается в 3Д / The Arti: The Adventure Begins 3D (2015) [BDRip,Half Side-By-Side / Горизонтальная анаморфная стереопара]

Регистрация Имя: Пароль: Запомнить Забыли пароль?



Правила форума





Начать новую тему Ответить на тему  [ Сообщений: 2 ] 
Статистика раздачи
Размер: 10.52 ГБ | Зарегистрирован: 07 янв 2017, 16:41 | .torrent скачан: 6
Сиды: 2 [0 байт/сек]    Личи: 0 [0 байт/сек]
Автор Сообщение
 СообщениеДобавлено: 07 янв 2017, 16:41 
Не в сети
Супермодератор
Аватара пользователя
Зарегистрирован: 22 апр 2012, 18:50
Торренты: 25
Раздал: 2.25 ПБ 
Скачал: 27.28 ТБ 
Ратио: 84.301
Спасибо: 235 / 21
Сообщения: 30
Комментарии: 15
Откуда: Харьков, Украина

Оригинальное название: The Arti: The Adventure Begins
Страна: Тайвань, PiLi International Multimedia
Продолжительность: 01:43:19
Дата выхода: 2015
Жанр: Mультфильм, фантастика, фэнтези, полнометражный
Режиссёр: Хуанг Вень Чанг
В ролях: Рики Хсиао, Хсяо-Шун Хсю, Чиа-Чиа Пенг, Ян Пуи, Хуан Вэнь Тзе
О фильме: Однажды, молодой мастер Мо получил в подарок от отца деревянного робота по имени Арти. Но жителей окрестностей испугало это изобретение и они напали на отца мастера Мо и убили его. Сам Мо сбежал со своей сестрой и своим роботом. Шестнадцать лет спустя, единственный источник силы - Ориджин, питавший Арти, стал иссякать. Мо ничего не остается, как отправиться на поиски нового источника для своего робота...
MediaInfo: Формат : Matroska
Версия формата : Version 2
Размер файла : 10,5 Гбайт
Продолжительность : 1 ч. 43 м.
Общий поток : 14,6 Мбит/сек
Название фильма : The.Arti.The.Adventure.Begins.2015.3D.H-SBS.[torrent3d.ru]
Дата кодирования : UTC 2017-01-06 21:19:29
Программа кодирования : mkvmerge v4.0.0 ('The Stars were mine') сборка от Jun 6 2010 16:18:42
Библиотека кодирования : libebml v1.0.0 + libmatroska v1.0.0


Видео
Идентификатор : 1
Формат : AVC
Формат/Информация : Advanced Video Codec
Профиль формата : High@L4.1
Параметр CABAC формата : Да
Параметр ReFrames формата : 4 кадра
Идентификатор кодека : V_MPEG4/ISO/AVC
Продолжительность : 1 ч. 43 м.
Битрейт : 14,0 Мбит/сек
Ширина : 1920 пикселей
Высота : 1080 пикселей
Соотношение сторон : 16:9
Режим частоты кадров : Постоянный
Частота кадров : 23,976 кадра/сек
Цветовое пространство : YUV
Субдискретизация насыщенности : 4:2:0
Битовая глубина : 8 бит
Тип развёртки : Прогрессивная
Бит/(Пиксели*Кадры) : 0.282
Размер потока : 9,85 Гбайт (94%)
Библиотека кодирования : x264 core 133 r2334 a3ac64b
Настройки программы : cabac=1 / ref=4 / deblock=1:-3:-3 / analyse=0x3:0x133 / me=umh / subme=11 / psy=1 / psy_rd=1.05:0.10 / mixed_ref=1 / me_range=64 / chroma_me=1 / trellis=2 / 8x8dct=1 / cqm=0 / deadzone=21,11 / fast_pskip=0 / chroma_qp_offset=-3 / threads=12 / lookahead_threads=2 / sliced_threads=0 / nr=0 / decimate=1 / interlaced=0 / bluray_compat=0 / constrained_intra=0 / bframes=8 / b_pyramid=2 / b_adapt=2 / b_bias=0 / direct=3 / weightb=1 / open_gop=0 / weightp=2 / keyint=250 / keyint_min=23 / scenecut=40 / intra_refresh=0 / rc_lookahead=80 / rc=2pass / mbtree=1 / bitrate=14000 / ratetol=1.0 / qcomp=0.60 / qpmin=0 / qpmax=69 / qpstep=4 / cplxblur=20.0 / qblur=0.5 / vbv_maxrate=40000 / vbv_bufsize=30000 / nal_hrd=none / ip_ratio=1.40 / aq=1:0.80
Язык : English
Default : Нет
Forced : Нет


Аудио
Идентификатор : 2
Формат : AC-3
Формат/Информация : Audio Coding 3
Расширение режима : CM (complete main)
Параметр Endianness формата : Big
Идентификатор кодека : A_AC3
Продолжительность : 1 ч. 43 м.
Вид битрейта : Постоянный
Битрейт : 640 Кбит/сек
Каналы : 6 каналов
Расположение каналов : Front: L C R, Side: L R, LFE
Частота : 48,0 КГц
Частота кадров : 31,250 кадров/сек (1536 spf)
Битовая глубина : 16 бит
Метод сжатия : С потерями
Размер потока : 473 Мбайт (4%)
Заголовок : Arti_rus_BadBajo
Язык : Russian
Default : Нет
Forced : Да


Меню
00:00:00.000 : en:00:00:00.000
00:12:04.557 : en:00:12:04.557
00:24:33.013 : en:00:24:33.013
00:35:00.556 : en:00:35:00.556
00:52:13.130 : en:00:52:13.130
01:04:17.645 : en:01:04:17.645
01:17:40.822 : en:01:17:40.822
01:28:08.283 : en:01:28:08.283

Контейнер: mkv
Формат аудио: AC3
Язык 1: русский
Качество видео: BDrip
формат 3D: SideBySide / Горизонтальная стереопара
Перевел и озвучил: BadBajo





Информация о торренте
Торрент:  Зарегистрирован [07 янв 2017, 16:41] Для скачивания необходимо Зарегистрироваться!



Если Вы уже зарегистрированы, то авторизуйтесь на трекере!
Статус:  
Размер:  10.52 ГБ (11 300 646 838 байт)
Приватный:  Нет (DHT включён)
Хэш:  ff6314fde9b790a26f48
3ddf1ba86e1ee661d079
Здоровье:  100%
.torrent скачан:  6
Как тут качать  Правила, основные инструкции, FAQ-и




 Профиль  
 
 СообщениеДобавлено: 13 сен 2017, 12:22 
Не в сети
заглянувший
Зарегистрирован: 13 сен 2017, 12:11
Торренты: 0
Раздал: 5 ГБ 
Скачал: 0 байт 
Ратио: None.
Спасибо: 0 / 0
Сообщения: 2
Комментарии: 2
It is very good. I have read about this thing and feel that it is very useful.


 Профиль  
 
Показать сообщения за:  Поле сортировки  
Начать новую тему Ответить на тему  [ Сообщений: 2 ] 


Кто сейчас на трекере

Сейчас этот форум просматривают: нет зарегистрированных пользователей и гости: 1


Вы не можете начинать темы
Вы не можете отвечать на сообщения
Вы не можете редактировать свои сообщения
Вы не можете удалять свои сообщения
Вы не можете добавлять вложения

Найти:


Правообладателям

!ВНИМАНИЕ!
Ресурс не предоставляет электронные версии произведений, а занимается лишь коллекционированием и каталогизацией ссылок, присылаемых и публикуемых на форуме нашими читателями. Если вы являетесь правообладателем какого-либо представленного материала и не желаете чтобы ссылка на него находилась в нашем каталоге, свяжитесь с нами и мы незамедлительно удалим её. Файлы для обмена на трекере предоставлены пользователями сайта, и администрация не несёт ответственности за их содержание. Просьба не заливать файлы, защищенные авторскими правами, а также файлы нелегального содержания!
cron
Вверх страницы
Вниз страницы
ppkBB3cker v.2 © 2008-2011 @ PPK