3d-tracker.ru • Просмотр темы - Машина времени в 3Д / The Time Machine 3D (2002) [2d->3D, BDRip, 1080р, Half OverUnder / Вертикальная анаморфная стереопара]

Регистрация Имя: Пароль: Запомнить Забыли пароль?



Правила форума





Начать новую тему Ответить на тему  [ Сообщений: 2 ] 
Статистика раздачи
Размер: 6.59 ГБ | Зарегистрирован: 03 апр 2017, 20:31 | .torrent скачан: 6
Сиды: 1 [0 байт/сек]    Личи: 1 [0 байт/сек]
Автор Сообщение
 СообщениеДобавлено: 03 апр 2017, 20:31 
Не в сети
Супермодератор
Аватара пользователя
Зарегистрирован: 15 апр 2014, 21:21
Торренты: 519
Раздал: 35.97 ТБ 
Скачал: 1.83 ТБ 
Ратио: 30.723
Спасибо: 3011 / 212
Сообщения: 685
Комментарии: 311
Откуда: РОССИЯ, ЦФО

Жанр: Боевик, Зарубежный фильм, Приключения, Фантастика
Страна: США
Режиссер: Саймон Уэллс
Год выпуска: 2002

В ролях: Гай Пирс, Марк Эдди, Сиенна Гиллори, Макс Бейкер, Филлида Ло, Лаура Кирк, Джош Стэмберг, Джеффри М. Мейер, Алан Янг, Саманта Мамба, Орландо Джонс, Джереми Айронс
О фильме: Молодой перспективный изобретатель Александр Хартдеген решил посвятить ближайшие годы своей жизни созданию машины времени. Он наивно полагает, что сможет с ее помощью изменить ход истории человечества для того, чтобы спасти невинно погибшую невесту. Александр запирается в своей лаборатории полностью оградив себя от внешнего мира. И он все-таки достигает своей цели. Хотя это событие и не приносит ему долгожданного облегчения, ведь оказывается, что никакая сила не может изменить судьбу человека. Кто должен умереть, тот умрет любым способом.

Продолжительность: 01:30:36
Озвучивание: Проф. (полное дублирование)

Качество: BDRip (1080р)
Видео: MPEG-4 AVC, 9800 Кбит/с, 23,976 кадр/с, 1920х800
Аудио: Русский АС3, 6 ch, 384 Кбит/с
Размер: 6,59 Гб

Формат 3D: Half OverUnder / Вертикальная анаморфная пара
Порядок ракурсов: верхний ракурс - первый
Полное имя : E:\AV\the.time.Machine.3d.Blu-Ray.x264.mkv
Формат : Matroska
Версия формата : Version 4 / Version 2
Размер файла : 6,59 Гбайт
Продолжительность : 1 ч. 30 м.
Общий поток : 10,4 Мбит/сек
Название фильма : the.time.Machine.blu-ray
Дата кодирования : UTC 2017-04-03 14:26:24
Программа кодирования : mkvmerge v7.1.0 ('Good Love') 64bit
Библиотека кодирования : libebml v1.3.0 + libmatroska v1.4.1
DURATION : 01:30:35.744000000

Видео
Идентификатор : 1
Формат : AVC
Формат/Информация : Advanced Video Codec
Профиль формата : High@L4.1
Параметр CABAC формата : Да
Параметр ReFrames формата : 2 кадра
Идентификатор кодека : V_MPEG4/ISO/AVC
Продолжительность : 1 ч. 30 м.
Битрейт : 9818 Кбит/сек
Ширина : 1920 пикселей
Высота : 1080 пикселей
Соотношение сторон : 16:9
Режим частоты кадров : Постоянный
Частота кадров : 23,976 кадра/сек
Цветовое пространство : YUV
Субдискретизация насыщенности : 4:2:0
Битовая глубина : 8 бит
Тип развёртки : Прогрессивная
Бит/(Пиксели*Кадры) : 0.197
Размер потока : 6,21 Гбайт (94%)
Библиотека кодирования : x264 core
Язык : English
Default : Да
Forced : Нет

Аудио
Идентификатор : 2
Формат : AC-3
Формат/Информация : Audio Coding 3
Расширение режима : CM (complete main)
Параметр Endianness формата : Big
Идентификатор кодека : A_AC3
Продолжительность : 1 ч. 30 м.
Вид битрейта : Постоянный
Битрейт : 384 Кбит/сек
Каналы : 6 каналов
Расположение каналов : Front: L C R, Side: L R, LFE
Частота : 48,0 КГц
Битовая глубина : 16 бит
Размер потока : 249 Мбайт (4%)
Язык : Russian
Default : Да
Forced : Нет

Информация о торренте
Торрент:  Зарегистрирован [03 апр 2017, 20:31] Для скачивания необходимо Зарегистрироваться!



Если Вы уже зарегистрированы, то авторизуйтесь на трекере!
Статус:  
Размер:  6.59 ГБ (7 072 516 066 байт)
Приватный:  Нет (DHT включён)
Хэш:  ab44b6332dbb544e6681
ace86464a77cb8f2d520
Здоровье:  100%
.torrent скачан:  6
Как тут качать  Правила, основные инструкции, FAQ-и



_________________


 Профиль  
 
 СообщениеДобавлено: 09 июн 2018, 20:54 
Не в сети
заглянувший
Зарегистрирован: 06 май 2013, 18:09
Торренты: 0
Раздал: 254.3 ГБ 
Скачал: 370.58 ГБ 
Ратио: 0.686
Спасибо: 0 / 0
Сообщения: 3
Комментарии: 3
еслиб без чёрных полос


 Профиль  
 
Показать сообщения за:  Поле сортировки  
Начать новую тему Ответить на тему  [ Сообщений: 2 ] 


Кто сейчас на трекере

Сейчас этот форум просматривают: нет зарегистрированных пользователей и гости: 4


Вы не можете начинать темы
Вы не можете отвечать на сообщения
Вы не можете редактировать свои сообщения
Вы не можете удалять свои сообщения
Вы не можете добавлять вложения

Найти:


Правообладателям

!ВНИМАНИЕ!
Ресурс не предоставляет электронные версии произведений, а занимается лишь коллекционированием и каталогизацией ссылок, присылаемых и публикуемых на форуме нашими читателями. Если вы являетесь правообладателем какого-либо представленного материала и не желаете чтобы ссылка на него находилась в нашем каталоге, свяжитесь с нами и мы незамедлительно удалим её. Файлы для обмена на трекере предоставлены пользователями сайта, и администрация не несёт ответственности за их содержание. Просьба не заливать файлы, защищенные авторскими правами, а также файлы нелегального содержания!
cron
Вверх страницы
Вниз страницы
ppkBB3cker v.2 © 2008-2011 @ PPK