3d-tracker.ru • Просмотр темы - Великая стена в 3Д / The Great Wall 3D (2016) [BDRip-AVC, 1080p, Zoom Half OverUnder / Вертикальная анаморфная стереопара на весь экран]

Регистрация Имя: Пароль: Запомнить Забыли пароль?



Правила форума





Начать новую тему Ответить на тему  [ Сообщений: 2 ] 
Статистика раздачи
Размер: 9.94 ГБ | Зарегистрирован: 14 май 2017, 12:02 | .torrent скачан: 41
Сиды: 9 [0 байт/сек]    Личи: 6 [0 байт/сек]
Автор Сообщение
 СообщениеДобавлено: 14 май 2017, 12:02 
Не в сети
Супермодератор
Аватара пользователя
Зарегистрирован: 15 апр 2014, 21:21
Торренты: 519
Раздал: 36.08 ТБ 
Скачал: 1.83 ТБ 
Ратио: 30.782
Спасибо: 3021 / 212
Сообщения: 685
Комментарии: 311
Откуда: РОССИЯ, ЦФО

Название: Великая стена
Оригинальное название: The Great Wall
Год выхода: 2016
Жанр: Фэнтези, боевик, триллер, детектив, приключения

Режиссер: Имоу Чжан
В ролях: Мэтт Дэймон, Тянь Цзин, Педро Паскаль, Лу Хан, Уиллем Дефо, Энди Лау, Эдди Пэн, Нуман Акар, Кенни Лин, Ханьюй Чжан, Вики Юй, Лю Бин, Чжэн Кай, Джонни Чикко, Чэни Чэнь, Кэрри Ван
О фильме: На протяжении многих столетий каждые 60 лет на Великую стену набегают мифические пожиратели плоти, чередуясь с монголами и опиумными караванами. Двое европейских наемников из отсталых стран невольно оказываются втянутыми в круговорот веществ внутри пищевой цепи. Теперь им нужно решить для себя сложную нравственную дилемму - без шума и пыли вывезти пригоршню взрывающегося черного порошка, или все-таки помочь разноцветным войскам Поднебесной остановить вторжение орд кошмарных тварей.

Страна: Китай, США
Студия: Atlas Entertainment, China Film Group Corporation, Legendary Pictures
Продолжительность: 01:43:03
Перевод: Дублированный | Лицензия

Качество: BDRip (1080p)
Видео: MPEG-4 AVC, 1920x1080, 13000 Kbit/s, 23.976 fps
Звук:
Аудио #01: 48 kHz, AC3, 5.1, 448 Kbps | Дублированный | RUS |
Аудио #02: 48 kHz, AC3, 5.1, 448 Kbps | Оригинал | ENG |
Субтитры: Русские (forced, full)

Формат 3D: Zoom Half OverUnder / Вертикальная анаморфная стереопара на весь экран (16:9)
Порядок ракурсов: верхний ракурс-первый
Полное имя : E:\AV\THE.GREAT.WALL.2016.3D.BDRip-AVC.1080p.ZH-OU.mkv
Формат : Matroska
Версия формата : Version 4 / Version 2
Размер файла : 9,94 Гбайт
Название фильма : THE_GREAT_WALL_3D.Title800-from Unter59
Дата кодирования : UTC 2017-05-14 05:52:04
Программа кодирования : mkvmerge v7.1.0 ('Good Love') 64bit
Библиотека кодирования : libebml v1.3.0 + libmatroska v1.4.1
DURATION : 01:43:03.328000000

Видео
Идентификатор : 1
Формат : AVC
Формат/Информация : Advanced Video Codec
Профиль формата : High@L4.1
Параметр CABAC формата : Да
Параметр ReFrames формата : 4 кадра
Идентификатор кодека : V_MPEG4/ISO/AVC
Продолжительность : 1 ч. 43 м.
Битрейт : 13,0 Мбит/сек
Ширина : 1920 пикселей
Высота : 1080 пикселей
Соотношение сторон : 16:9
Режим частоты кадров : Постоянный
Частота кадров : 23,976 кадра/сек
Цветовое пространство : YUV
Субдискретизация насыщенности : 4:2:0
Битовая глубина : 8 бит
Тип развёртки : Прогрессивная
Бит/(Пиксели*Кадры) : 0.261
Размер потока : 9,10 Гбайт (92%)
Заголовок : 1080p, Zoom.HOU
Язык : English
Default : Да
Forced : Нет

Аудио #1
Идентификатор : 2
Формат : AC-3
Формат/Информация : Audio Coding 3
Расширение режима : CM (complete main)
Параметр Endianness формата : Big
Идентификатор кодека : A_AC3
Продолжительность : 1 ч. 43 м.
Вид битрейта : Постоянный
Битрейт : 448 Кбит/сек
Каналы : 6 каналов
Расположение каналов : Front: L C R, Side: L R, LFE
Частота : 48,0 КГц
Битовая глубина : 16 бит
Размер потока : 330 Мбайт (3%)
Заголовок : 6 ch, 448 kbit/s - Dub (лицензия)
Язык : Russian
Default : Да
Forced : Нет

Аудио #2
Идентификатор : 5
Формат : AC-3
Формат/Информация : Audio Coding 3
Расширение режима : CM (complete main)
Параметр Endianness формата : Big
Идентификатор кодека : A_AC3
Продолжительность : 1 ч. 43 м.
Вид битрейта : Постоянный
Битрейт : 448 Кбит/сек
Каналы : 6 каналов
Расположение каналов : Front: L C R, Side: L R, LFE
Частота : 48,0 КГц
Битовая глубина : 16 бит
Размер потока : 330 Мбайт (3%)
Язык : English
Default : Нет
Forced : Нет

Текст #1
Идентификатор : 3
Формат : VobSub
Режим смешивания : zlib
Идентификатор кодека : S_VOBSUB
Идентификатор кодека/Информация : The same subtitle format used on DVDs
Язык : Russian
Default : Да
Forced : Нет

Текст #2
Идентификатор : 4
Формат : VobSub
Режим смешивания : zlib
Идентификатор кодека : S_VOBSUB
Идентификатор кодека/Информация : The same subtitle format used on DVDs
Язык : Russian
Default : Нет
Forced : Нет






Информация о торренте
Торрент:  Зарегистрирован [14 май 2017, 12:02] Для скачивания необходимо Зарегистрироваться!



Если Вы уже зарегистрированы, то авторизуйтесь на трекере!
Статус:  
Размер:  9.94 ГБ (10 678 120 669 байт)
Приватный:  Нет (DHT включён)
Хэш:  4a42e5920208ed729357
3be4a23fadb6bbddd325
Здоровье:  100%
.torrent скачан:  41
Как тут качать  Правила, основные инструкции, FAQ-и



_________________


 Профиль  
 
 СообщениеДобавлено: 23 июн 2018, 02:28 
Не в сети
заглянувший
Зарегистрирован: 22 июн 2018, 16:46
Торренты: 0
Раздал: 5.62 ГБ 
Скачал: 69.83 ГБ 
Ратио: 0.081
Спасибо: 0 / 0
Сообщения: 5
Комментарии: 5
Про времена рыцарей должным образом снимают хорошо.Ну а Артур самый великий.Фильм достойный к просмотру. :men:


 Профиль  
 
Показать сообщения за:  Поле сортировки  
Начать новую тему Ответить на тему  [ Сообщений: 2 ] 


Кто сейчас на трекере

Сейчас этот форум просматривают: нет зарегистрированных пользователей и гости: 3


Вы не можете начинать темы
Вы не можете отвечать на сообщения
Вы не можете редактировать свои сообщения
Вы не можете удалять свои сообщения
Вы не можете добавлять вложения

Найти:
 cron

Правообладателям

!ВНИМАНИЕ!
Ресурс не предоставляет электронные версии произведений, а занимается лишь коллекционированием и каталогизацией ссылок, присылаемых и публикуемых на форуме нашими читателями. Если вы являетесь правообладателем какого-либо представленного материала и не желаете чтобы ссылка на него находилась в нашем каталоге, свяжитесь с нами и мы незамедлительно удалим её. Файлы для обмена на трекере предоставлены пользователями сайта, и администрация не несёт ответственности за их содержание. Просьба не заливать файлы, защищенные авторскими правами, а также файлы нелегального содержания!
cron
Вверх страницы
Вниз страницы
ppkBB3cker v.2 © 2008-2011 @ PPK