3d-tracker.ru • Просмотр темы - Мумия в 3Д / The Mummy 3D (2017) [BDRip by SOLdAt, 1080p, Zoom Half Over Under / Вертикальная анаморфная стереопара на весь экран]

Регистрация Имя: Пароль: Запомнить Забыли пароль?



Правила форума





Начать новую тему Ответить на тему  [ Сообщений: 4 ] 
Статистика раздачи
Размер: 7.71 ГБ | Зарегистрирован: 20 сен 2017, 10:34 | .torrent скачан: 24
Сиды: 11 [0 байт/сек]    Личи: 3 [0 байт/сек]
Автор Сообщение
 СообщениеДобавлено: 20 сен 2017, 10:34 
Не в сети
Супермодератор
Аватара пользователя
Зарегистрирован: 15 апр 2014, 21:21
Торренты: 475
Раздал: 35.02 ТБ 
Скачал: 1.83 ТБ 
Ратио: 30.201
Спасибо: 2747 / 192
Сообщения: 627
Комментарии: 281
Откуда: РОССИЯ, ЦФО

Название: Мумия
Оригинальное название: The Mummy
Год выхода: 2017
Жанр: Ужасы, фэнтези, боевик, приключения

Режиссер: Алекс Куртцман
В ролях: Том Круз, Расселл Кроу, Аннабелль Уоллис, София Бутелла, Джейк Джонсон, Кортни Б. Вэнс, Марван Кензари, Саймон Атертон
О фильме: События происходят в наши дни, герой Тома Круза по имени Ник Мортон – боец спецподразделения на Ближнем Востоке, который, преследуя боевиков, попадает в странный бункер, где обнаруживает мумию ассирийской царицы. Вместе с ученой-антропологом по имени Дженни Хэлси (Аннабелль Уоллис) и группой солдат ее тело самолетом перевозят в Лондон. В процессе транспортировки случается инцидент, и самолет терпит крушение, после которого выжить удается только Нику и...мумии. Как гласит история, в свое время судьба несправедливо обошлась с ней и теперь, спустя тысячи лет, богиня просыпается ото сна. Пролежав все это время под тоннами песка, она наконец-то обретает свободу, и теперь ей ничто не помешает обрушить всю свою ярость на человечество.

Страна: США
Студия: Perfect World Pictures, Sean Daniel Company, Universal Pictures
Продолжительность: 01:40:58
Перевод: Дублированный | iTunes

Качество: BDRip (1080p) by SOLdAt
Видео: AVC / 1920х1080 / 23,976 fps / ~9800 kbps
Аудио:
#1 - Русский / AC3 / 48 KHz / 5.1 ch / 448 Kbps (Дубляж - iTunes)
#2 - Английский / AC3 / 48 KHz / 5.1 ch / 448 Kbps (Original - BD 3D)
Субтитры (SRT):
Внешние (UTF-8):
#1 - Русские Форсированные (включены по умолчанию)
#2 - Русские Полные (iTunes)
Размер: 7,71 Гб

Формат 3D: Zoom Half Over Under / Вертикальная анаморфная стереопара (16:9)
Порядок ракурсов: Левый-первый
-Обрезаны заключительные титры
-слева и с справа обрезано по 248р - формат экрана 16:9

Полное имя : E:\AV\The.Mummy.2017.BlurayRip.3D.1080p.ZHOU.by_SOLdAt.mkv
Формат : Matroska
Версия формата : Version 4 / Version 2
Размер файла : 7,71 Гбайт
Общий поток : 10,9 Мбит/сек
Название фильма : The.Mummy.2017.BlurayRip.3D.1080p.ZHOU.by_SOLdAt
Дата кодирования : UTC 2017-09-20 04:17:06
Программа кодирования : mkvmerge v7.1.0 ('Good Love') 64bit
Библиотека кодирования : libebml v1.3.0 + libmatroska v1.4.1
Attachements : Cover.JPG
DURATION : DURATION : 01:40:58.080000000

Видео
Идентификатор : 1
Формат : AVC
Формат/Информация : Advanced Video Codec
Профиль формата : High@L4.0
Параметр CABAC формата : Да
Параметр ReFrames формата : 2 кадра
Параметр GOP формата : M=3, N=24
Идентификатор кодека : V_MPEG4/ISO/AVC
Битрейт : 9813 Кбит/сек
Ширина : 1920 пикселей
Высота : 1080 пикселей
Соотношение сторон : 16:9
Режим частоты кадров : Постоянный
Частота кадров : 23,976 кадра/сек
Цветовое пространство : YUV
Субдискретизация насыщенности : 4:2:0
Битовая глубина : 8 бит
Тип развёртки : Прогрессивная
Бит/(Пиксели*Кадры) : 0.197
Размер потока : 6,92 Гбайт (90%)
Заголовок : 1080p, ZoomHOU
Язык : English
Default : Да
Forced : Нет

Аудио #1
Идентификатор : 2
Формат : AC-3
Формат/Информация : Audio Coding 3
Расширение режима : CM (complete main)
Параметр Endianness формата : Big
Идентификатор кодека : A_AC3
Вид битрейта : Постоянный
Битрейт : 448 Кбит/сек
Каналы : 6 каналов
Расположение каналов : Front: L C R, Side: L R, LFE
Частота : 48,0 КГц
Битовая глубина : 16 бит
Размер потока : 324 Мбайт (4%)
Заголовок : 6 ch, 448 kbs - itunes
Язык : Russian
Default : Да
Forced : Нет

Аудио #2
Идентификатор : 3
Формат : AC-3
Формат/Информация : Audio Coding 3
Расширение режима : CM (complete main)
Параметр Endianness формата : Big
Идентификатор кодека : A_AC3
Вид битрейта : Постоянный
Битрейт : 448 Кбит/сек
Каналы : 6 каналов
Расположение каналов : Front: L C R, Side: L R, LFE
Частота : 48,0 КГц
Битовая глубина : 16 бит
Размер потока : 324 Мбайт (4%)
Заголовок : Original
Язык : English
Default : Нет
Forced : Нет

Текст #1
Идентификатор : 4
Формат : UTF-8
Идентификатор кодека : S_TEXT/UTF8
Идентификатор кодека/Информация : UTF-8 Plain Text
Язык : Russian
Default : Нет
Forced : Нет

Текст #2
Идентификатор : 5
Формат : UTF-8
Идентификатор кодека : S_TEXT/UTF8
Идентификатор кодека/Информация : UTF-8 Plain Text
Default : Да
Forced : Нет

Информация о торренте
Торрент:  Зарегистрирован [20 сен 2017, 10:34] Для скачивания необходимо Зарегистрироваться!



Если Вы уже зарегистрированы, то авторизуйтесь на трекере!
Статус:  
Размер:  7.71 ГБ (8 273 783 936 байт)
Приватный:  Нет (DHT включён)
Хэш:  c4efefd9079d030a6bdf
f580362095216645605c
Здоровье:  100%
.torrent скачан:  24
Как тут качать  Правила, основные инструкции, FAQ-и



_________________


 Профиль  
 
 СообщениеДобавлено: 21 сен 2017, 10:10 
Не в сети
Бывалый
Зарегистрирован: 07 июн 2014, 08:13
Торренты: 55
Раздал: 1.8 ТБ 
Скачал: 1020.56 ГБ 
Ратио: 1.806
Спасибо: 240 / 611
Сообщения: 157
Комментарии: 166
:bra_vo: :bra_vo: :ya_hoo_oo:


 Профиль  
 
 СообщениеДобавлено: 21 сен 2017, 12:19 
Не в сети
заглянувший
Аватара пользователя
Зарегистрирован: 09 июл 2012, 21:22
Торренты: 0
Раздал: 4.63 ТБ 
Скачал: 739.72 ГБ 
Ратио: 7.016
Спасибо: 0 / 15
Сообщения: 5
Комментарии: 8
Откуда: Москва
это 3д или конверт?


 Профиль  
 
 СообщениеДобавлено: 21 сен 2017, 16:42 
Не в сети
Супермодератор
Аватара пользователя
Зарегистрирован: 15 апр 2014, 21:21
Торренты: 475
Раздал: 35.02 ТБ 
Скачал: 1.83 ТБ 
Ратио: 30.201
Спасибо: 2747 / 192
Сообщения: 627
Комментарии: 281
Откуда: РОССИЯ, ЦФО
Вообще-то глупый вопрос!
Глаза вверх и читать по слогам!
Треккер- фантастика - ...
Когда размещаю конверт то он в соответствующем разделe трекера под названием конвертация 2д->3D

_________________


 Профиль  
 
Показать сообщения за:  Поле сортировки  
Начать новую тему Ответить на тему  [ Сообщений: 4 ] 


Кто сейчас на трекере

Сейчас этот форум просматривают: нет зарегистрированных пользователей и гости: 5


Вы не можете начинать темы
Вы не можете отвечать на сообщения
Вы не можете редактировать свои сообщения
Вы не можете удалять свои сообщения
Вы не можете добавлять вложения

Найти:


Правообладателям

!ВНИМАНИЕ!
Ресурс не предоставляет электронные версии произведений, а занимается лишь коллекционированием и каталогизацией ссылок, присылаемых и публикуемых на форуме нашими читателями. Если вы являетесь правообладателем какого-либо представленного материала и не желаете чтобы ссылка на него находилась в нашем каталоге, свяжитесь с нами и мы незамедлительно удалим её. Файлы для обмена на трекере предоставлены пользователями сайта, и администрация не несёт ответственности за их содержание. Просьба не заливать файлы, защищенные авторскими правами, а также файлы нелегального содержания!
cron
Вверх страницы
Вниз страницы
ppkBB3cker v.2 © 2008-2011 @ PPK