3d-tracker.ru • Просмотр темы - Огонь, вода и ... медные трубы / 3D (1967) [1080p, Half SideBySide / Горизонтальная анаморфная стереопара]

Регистрация Имя: Пароль: Запомнить Забыли пароль?



Правила форума





Начать новую тему Ответить на тему  [ Сообщений: 3 ] 
Статистика раздачи
Размер: 6.97 ГБ | Зарегистрирован: 22 сен 2017, 22:25 | .torrent скачан: 8
Сиды: 2 [0 байт/сек]    Личи: 1 [0 байт/сек]
Автор Сообщение
 СообщениеДобавлено: 22 сен 2017, 22:25 
Не в сети
Супермодератор
Аватара пользователя
Зарегистрирован: 15 апр 2014, 21:21
Торренты: 475
Раздал: 35.02 ТБ 
Скачал: 1.83 ТБ 
Ратио: 30.201
Спасибо: 2747 / 192
Сообщения: 627
Комментарии: 281
Откуда: РОССИЯ, ЦФО

Ручной конверт!
Страна: СССР
Производство: Студия Горького
Жанр: мюзикл, мелодрама, семейный
Год выпуска: 1967
Продолжительность: 01:15:41

Перевод: не требуется
Оригинальная аудиодорожка: русская
Cубтитры: нет

Режиссер: Александр Роу
В ролях: Наталья Седых, Алексей Катышев, Георгий Милляр, Вера Алтайская, Михаил Пуговкин, Лев Потемкин, Александр Хвыля, Анатолий Кубацкий, Леонид Харитонов, Муза Крепкогорская, Алексей Смирнов...
Описание: Герой фильма как-то отправляется в лес, чтобы жечь уголь. И там, на полянке, ему повстречалась Аленушка, которая пасла своего козленка. Но слуги Кащея Бессмертного похитили девушку прямо на глазах у Васи. В поисках возлюбленной Вася в буквальном смысле проходит сквозь огонь и воду. Но труднее всего устоять перед медными трубами, перед сверкающим сиянием славы…

Качество: BDRip (1080р)
Видео: AVC, 1920x1080, 13,0 Мбит/сек, 23,976 fps
Аудио: 48 kHz, AC3, 2 ch, 192 Kbps | Rus
Размер: 6,97 Гб

Формат 3D: Half SideBySide / Горизонтальная анаморфная пара (16:9)
Порядок ракурсов: Левый-первый
Полное имя : E:\AV\Ogon',voda.i...mednye.truby.1967.3D.HSBS.by_UNTER59.mkv
Формат : Matroska
Версия формата : Version 4 / Version 2
Размер файла : 6,97 Гбайт
Название фильма : From_UNtER59
Дата кодирования : UTC 2017-09-22 14:15:37
Программа кодирования : mkvmerge v7.1.0 ('Good Love') 64bit
Библиотека кодирования : libebml v1.3.0 + libmatroska v1.4.1
Attachements : Cover.JPG
DURATION : 01:15:40.676000000

Видео
Идентификатор : 1
Формат : AVC
Формат/Информация : Advanced Video Codec
Профиль формата : High@L4.1
Параметр CABAC формата : Да
Параметр ReFrames формата : 4 кадра
Идентификатор кодека : V_MPEG4/ISO/AVC
Битрейт : 13,0 Мбит/сек
Ширина : 1920 пикселей
Высота : 1080 пикселей
Соотношение сторон : 16:9
Режим частоты кадров : Постоянный
Частота кадров : 23,976 кадра/сек
Цветовое пространство : YUV
Субдискретизация насыщенности : 4:2:0
Битовая глубина : 8 бит
Тип развёртки : Прогрессивная
Бит/(Пиксели*Кадры) : 0.261
Размер потока : 6,73 Гбайт (97%)
Заголовок : 1080, HSBS
Язык : English
Default : Да
Forced : Нет


Аудио
Идентификатор : 2
Формат : AC-3
Формат/Информация : Audio Coding 3
Расширение режима : CM (complete main)
Параметр Endianness формата : Big
Идентификатор кодека : A_AC3
Вид битрейта : Постоянный
Битрейт : 192 Кбит/сек
Каналы : 2 канала
Расположение каналов : Front: L R
Частота : 48,0 КГц
Битовая глубина : 16 бит
Размер потока : 104 Мбайт (1%)
Заголовок : 2 ch, 192 kbs
Язык : Russian
Default : Да
Forced : Нет

Информация о торренте
Торрент:  Зарегистрирован [22 сен 2017, 22:25] Для скачивания необходимо Зарегистрироваться!



Если Вы уже зарегистрированы, то авторизуйтесь на трекере!
Статус:  
Размер:  6.97 ГБ (7 487 057 232 байт)
Приватный:  Нет (DHT включён)
Хэш:  adb0b073ca7149016f3d
350ed13fe62b55fd8e97
Здоровье:  100%
.torrent скачан:  8
Как тут качать  Правила, основные инструкции, FAQ-и



_________________


 Профиль  
 
 СообщениеДобавлено: 02 окт 2017, 19:50 
Не в сети
Бывалый
Зарегистрирован: 15 май 2014, 15:05
Торренты: 37
Раздал: 2.94 ТБ 
Скачал: 1.25 ТБ 
Ратио: 2.357
Спасибо: 212 / 679
Сообщения: 134
Комментарии: 132
Можно заказать сказку "Морозко" ???
Заранее спасибо!


 Профиль  
 
 СообщениеДобавлено: 03 окт 2017, 11:57 
Не в сети
Супермодератор
Аватара пользователя
Зарегистрирован: 15 апр 2014, 21:21
Торренты: 475
Раздал: 35.02 ТБ 
Скачал: 1.83 ТБ 
Ратио: 30.201
Спасибо: 2747 / 192
Сообщения: 627
Комментарии: 281
Откуда: РОССИЯ, ЦФО
kristin89 писал(а):
"Морозко"

http://3d-tracker.ru/viewtopic.php?f=12&t=2531

_________________


 Профиль  
 
Показать сообщения за:  Поле сортировки  
Начать новую тему Ответить на тему  [ Сообщений: 3 ] 


Кто сейчас на трекере

Сейчас этот форум просматривают: нет зарегистрированных пользователей и гости: 2


Вы не можете начинать темы
Вы не можете отвечать на сообщения
Вы не можете редактировать свои сообщения
Вы не можете удалять свои сообщения
Вы не можете добавлять вложения

Найти:


Правообладателям

!ВНИМАНИЕ!
Ресурс не предоставляет электронные версии произведений, а занимается лишь коллекционированием и каталогизацией ссылок, присылаемых и публикуемых на форуме нашими читателями. Если вы являетесь правообладателем какого-либо представленного материала и не желаете чтобы ссылка на него находилась в нашем каталоге, свяжитесь с нами и мы незамедлительно удалим её. Файлы для обмена на трекере предоставлены пользователями сайта, и администрация не несёт ответственности за их содержание. Просьба не заливать файлы, защищенные авторскими правами, а также файлы нелегального содержания!
cron
Вверх страницы
Вниз страницы
ppkBB3cker v.2 © 2008-2011 @ PPK