3d-tracker.ru • Просмотр темы - Могучие рейнджеры в 3Д / Power Rangers 3D (2017) [BDRip, 1080p, Zoom Half OverUnder / Вертикальная анаморфная стереопара на весь экран]

Регистрация Имя: Пароль: Запомнить Забыли пароль?



Правила форума





Начать новую тему Ответить на тему  [ Сообщений: 2 ] 
Статистика раздачи
Размер: 8.15 ГБ | Зарегистрирован: 01 окт 2017, 10:30 | .torrent скачан: 11
Сиды: 5 [0 байт/сек]    Личи: 0 [0 байт/сек]
Автор Сообщение
 СообщениеДобавлено: 01 окт 2017, 10:30 
В сети
Супермодератор
Аватара пользователя
Зарегистрирован: 15 апр 2014, 21:21
Торренты: 501
Раздал: 35.28 ТБ 
Скачал: 1.83 ТБ 
Ратио: 30.347
Спасибо: 2878 / 200
Сообщения: 663
Комментарии: 305
Откуда: РОССИЯ, ЦФО

Название: Могучие рейнджеры
Оригинальное название: Power Rangers
Год выпуска: 2017
Жанр: Фантастика, боевик, приключения

Режиссер: Дин Израэлайт
В ролях: Дакре Монтгомери, Наоми Скотт, АрДжей Сайлер, Луди Линь, Бекки Джи, Элизабет Бэнкс, Брайан Крэнстон, Билл Хэйдер, Мэтт Шайвли, Коуди Кирсли
О фильме: Пять обычных старшеклассников узнают, что их маленький город Энджел Гроув и весь мир находятся на грани уничтожения инопланетной угрозой. Избранные судьбой наши герои быстро понимают, что они единственные, кто может спасти планету.

Страна: США, Гонконг, Япония, Мексика, Канада, Новая Зеландия
Студия: Lionsgate, Saban Brands, Saban Entertainment Inc., Temple Hill Entertainment, Walt Disney Studios Motion Pictures
Продолжительность: 01:51:48
Перевод: Дублированный | iTunes

Качество: BDRip (1080р)
Видео: AVC, 1920x1080, 24,000 fps, ~9500 kbps
Звук: AC3, 6 ch, 384 kbps
Субтитры: Русские форсированные(включены по умолчанию)
Размер: 8,15 Гб

Формат 3D: Half OverUnder / Вертикальная анаморфная стереопара (16:9)
Порядок ракурсов: Левый-первый
Полное имя : E:\AV\Power.Rangers.2017.3d.1080p.Z-HOU.mkv
Формат : Matroska
Версия формата : Version 4 / Version 2
Размер файла : 8,15 Гбайт
Название фильма : from Unter59
Дата кодирования : UTC 2017-10-01 04:33:00
Программа кодирования : mkvmerge v7.1.0 ('Good Love') 64bit
Библиотека кодирования : libebml v1.3.0 + libmatroska v1.4.1
Attachements : Cover.JPG
DURATION : 01:51:47.583000000

Видео
Идентификатор : 1
Формат : AVC
Формат/Информация : Advanced Video Codec
Профиль формата : High@L4.0
Параметр CABAC формата : Да
Параметр ReFrames формата : 2 кадра
Параметр GOP формата : M=3, N=18
Идентификатор кодека : V_MPEG4/ISO/AVC
Битрейт : 9479 Кбит/сек
Ширина : 1920 пикселей
Высота : 1080 пикселей
Соотношение сторон : 16:9
Режим частоты кадров : Постоянный
Частота кадров : 24,000 кадра/сек
Цветовое пространство : YUV
Субдискретизация насыщенности : 4:2:0
Битовая глубина : 8 бит
Тип развёртки : Прогрессивная
Бит/(Пиксели*Кадры) : 0.190
Размер потока : 7,67 Гбайт (94%)
Заголовок : 1080p, ZoomHOU
Язык : English
Default : Да
Forced : Нет

Аудио
Идентификатор : 2
Формат : AC-3
Формат/Информация : Audio Coding 3
Расширение режима : CM (complete main)
Параметр Endianness формата : Big
Идентификатор кодека : A_AC3
Вид битрейта : Постоянный
Битрейт : 384 Кбит/сек
Каналы : 6 каналов
Расположение каналов : Front: L C R, Side: L R, LFE
Частота : 48,0 КГц
Битовая глубина : 16 бит
Размер потока : 318 Мбайт (4%)
Заголовок : 6ch, 384kbs
Язык : Russian
Default : Да
Forced : Нет

Текст
Идентификатор : 3
Формат : UTF-8
Идентификатор кодека : S_TEXT/UTF8
Идентификатор кодека/Информация : UTF-8 Plain Text
Язык : Russian
Default : Да
Forced : Нет

Информация о торренте
Торрент:  Зарегистрирован [01 окт 2017, 10:30] Для скачивания необходимо Зарегистрироваться!



Если Вы уже зарегистрированы, то авторизуйтесь на трекере!
Статус:  
Размер:  8.15 ГБ (8 747 517 233 байт)
Приватный:  Нет (DHT включён)
Хэш:  2b9888aad0470083b85f
944a15bfad0dc42f70c1
Здоровье:  100%
.torrent скачан:  11
Как тут качать  Правила, основные инструкции, FAQ-и



_________________


 Профиль  
 
 СообщениеДобавлено: 02 окт 2017, 19:48 
Не в сети
Бывалый
Зарегистрирован: 15 май 2014, 15:05
Торренты: 37
Раздал: 2.97 ТБ 
Скачал: 1.26 ТБ 
Ратио: 2.355
Спасибо: 213 / 712
Сообщения: 135
Комментарии: 133
Конверт :co_ol: :ya_hoo_oo:


 Профиль  
 
Показать сообщения за:  Поле сортировки  
Начать новую тему Ответить на тему  [ Сообщений: 2 ] 


Кто сейчас на трекере

Сейчас этот форум просматривают: Google [Bot], Majestic-12 [Bot] и гости: 4


Вы не можете начинать темы
Вы не можете отвечать на сообщения
Вы не можете редактировать свои сообщения
Вы не можете удалять свои сообщения
Вы не можете добавлять вложения

Найти:


Правообладателям

!ВНИМАНИЕ!
Ресурс не предоставляет электронные версии произведений, а занимается лишь коллекционированием и каталогизацией ссылок, присылаемых и публикуемых на форуме нашими читателями. Если вы являетесь правообладателем какого-либо представленного материала и не желаете чтобы ссылка на него находилась в нашем каталоге, свяжитесь с нами и мы незамедлительно удалим её. Файлы для обмена на трекере предоставлены пользователями сайта, и администрация не несёт ответственности за их содержание. Просьба не заливать файлы, защищенные авторскими правами, а также файлы нелегального содержания!
cron
Вверх страницы
Вниз страницы
ppkBB3cker v.2 © 2008-2011 @ PPK