3d-tracker.ru • Просмотр темы - Морозко / 3D (1964) [BDRip, 1080p, Half Side-By-Side / Горизонтальная анаморфная стереопара на весь экран]

Регистрация Имя: Пароль: Запомнить Забыли пароль?



Правила форума





Начать новую тему Ответить на тему  [ Сообщений: 5 ] 
Статистика раздачи
Размер: 7 ГБ | Зарегистрирован: 03 окт 2017, 13:16 | .torrent скачан: 7
Сиды: 3 [0 байт/сек]    Личи: 0 [0 байт/сек]
Автор Сообщение
 СообщениеДобавлено: 03 окт 2017, 12:06 
В сети
Супермодератор
Аватара пользователя
Зарегистрирован: 15 апр 2014, 21:21
Торренты: 501
Раздал: 35.28 ТБ 
Скачал: 1.83 ТБ 
Ратио: 30.347
Спасибо: 2878 / 200
Сообщения: 663
Комментарии: 305
Откуда: РОССИЯ, ЦФО

Название: Морозко
Год выхода: 1964
Жанр: фэнтези, мелодрама, комедия, семейный

Режиссер: Александр Роу
В ролях: Александр Хвыля, Наталья Седых, Эдуард Изотов, Инна Чурикова, Павел Павленко, Вера Алтайская, Георгий Милляр, Галина Борисова, Анатолий Кубацкий, Валентин Брылеев
О фильме: Жила-была хорошая добрая девушка Настенька. Злая мачеха заставляла ее работать, не давая продыху. Однажды она решила избавиться от падчерицы и отправила ту замерзать в зимний лес. В этих же краях жил паренек Иван. Он полюбил Настеньку, да вот только был он большим хвастуном, потому лесной колдун и превратил его в медведя.И Настеньке, и Ивану пришлось пройти через много испытаний, прежде чем соединить свои судьбы. И помог им в этом добрый волшебник — дедушка Морозко…

Выпущено: СССР
Продолжительность: 01:17:28
Субтитры: нет

Качество: BDRip (1080p)
Видео: 1920x1080, 23,976 fps, AVC, 12,4 Мбит/с
Аудио: 48.0 kHz, AC3, 2 ch, 256 kbps
Размер: 7,00 Гб

Формат 3D: Half SideBySide / Горизонтальная анаморфная стереопара (16:9)
Порядок ракурсов: Левый-первый
Полное имя : E:\AV\Morozko.1964-3D.1080p.H-SBS.mkv
Формат : Matroska
Версия формата : Version 4 / Version 2
Размер файла : 7,00 Гбайт
Название фильма : from Unter59
Дата кодирования : UTC 2017-10-03 04:09:32
Программа кодирования : mkvmerge v7.1.0 ('Good Love') 64bit
Библиотека кодирования : libebml v1.3.0 + libmatroska v1.4.1
Attachements : Cover.JPG
DURATION : 01:17:28.000000000

Видео
Идентификатор : 1
Формат : MPEG Video
Версия формата : Version 2
Профиль формата : High@4.0
Параметр BVOP формата : Да
Параметр GOP формата : M=3, N=24
Идентификатор кодека : V_MPEG2
Битрейт : 12,4 Мбит/сек
Ширина : 1920 пикселей
Высота : 1080 пикселей
Соотношение сторон : 16:9
Режим частоты кадров : Постоянный
Частота кадров : 23,976 кадра/сек
Цветовое пространство : YUV
Субдискретизация насыщенности : 4:2:0
Битовая глубина : 8 бит
Тип развёртки : Прогрессивная
Бит/(Пиксели*Кадры) : 0.250
Размер потока : 6,72 Гбайт (96%)
Язык : English
Default : Да
Forced : Нет

Аудио
Идентификатор : 2
Формат : AC-3
Формат/Информация : Audio Coding 3
Расширение режима : CM (complete main)
Параметр Endianness формата : Big
Идентификатор кодека : A_AC3
Вид битрейта : Постоянный
Битрейт : 256 Кбит/сек
Каналы : 2 канала
Расположение каналов : Front: L R
Частота : 48,0 КГц
Битовая глубина : 16 бит
Размер потока : 142 Мбайт (2%)
Язык : Russian
Default : Да
Forced : Нет



Информация о торренте
Торрент:  Зарегистрирован [03 окт 2017, 13:16] Для скачивания необходимо Зарегистрироваться!



Если Вы уже зарегистрированы, то авторизуйтесь на трекере!
Статус:  
Размер:  7 ГБ (7 514 455 465 байт)
Приватный:  Нет (DHT включён)
Хэш:  e1e296c07619aa364167
811e4ad611734bf0db8f
Здоровье:  100%
.torrent скачан:  7
Как тут качать  Правила, основные инструкции, FAQ-и



_________________


 Профиль  
 
 СообщениеДобавлено: 03 окт 2017, 12:27 
Не в сети
заглянувший
Зарегистрирован: 27 мар 2014, 17:45
Торренты: 0
Раздал: 227.97 ГБ 
Скачал: 516.39 ГБ 
Ратио: 0.441
Спасибо: 0 / 1
Сообщения: 18
Комментарии: 27
Спасибо, но не качается.


 Профиль  
 
 СообщениеДобавлено: 03 окт 2017, 16:14 
Не в сети
Бывалый
Зарегистрирован: 15 май 2014, 15:05
Торренты: 37
Раздал: 2.97 ТБ 
Скачал: 1.26 ТБ 
Ратио: 2.355
Спасибо: 213 / 712
Сообщения: 135
Комментарии: 133
nikolaisemerak писал(а):
не качается.


:bra_vo: :ya_hoo_oo: :co_ol: СПАСИБО!


 Профиль  
 
 СообщениеДобавлено: 03 окт 2017, 23:03 
Не в сети
заглянувший
Аватара пользователя
Зарегистрирован: 03 мар 2016, 15:54
Торренты: 0
Раздал: 886.07 ГБ 
Скачал: 676.4 ГБ 
Ратио: 1.310
Спасибо: 0 / 155
Сообщения: 11
Комментарии: 14
Откуда: москва
:-): СПАСИБО ЗА СКАЗКУ :-ok-:


 Профиль  
 
 СообщениеДобавлено: 04 окт 2017, 09:02 
В сети
Супермодератор
Аватара пользователя
Зарегистрирован: 15 апр 2014, 21:21
Торренты: 501
Раздал: 35.28 ТБ 
Скачал: 1.83 ТБ 
Ратио: 30.347
Спасибо: 2878 / 200
Сообщения: 663
Комментарии: 305
Откуда: РОССИЯ, ЦФО
Всегда пожалуста!!!!

_________________


 Профиль  
 
Показать сообщения за:  Поле сортировки  
Начать новую тему Ответить на тему  [ Сообщений: 5 ] 


Кто сейчас на трекере

Сейчас этот форум просматривают: raimedas и гости: 1


Вы не можете начинать темы
Вы не можете отвечать на сообщения
Вы не можете редактировать свои сообщения
Вы не можете удалять свои сообщения
Вы не можете добавлять вложения

Найти:


Правообладателям

!ВНИМАНИЕ!
Ресурс не предоставляет электронные версии произведений, а занимается лишь коллекционированием и каталогизацией ссылок, присылаемых и публикуемых на форуме нашими читателями. Если вы являетесь правообладателем какого-либо представленного материала и не желаете чтобы ссылка на него находилась в нашем каталоге, свяжитесь с нами и мы незамедлительно удалим её. Файлы для обмена на трекере предоставлены пользователями сайта, и администрация не несёт ответственности за их содержание. Просьба не заливать файлы, защищенные авторскими правами, а также файлы нелегального содержания!
cron
Вверх страницы
Вниз страницы
ppkBB3cker v.2 © 2008-2011 @ PPK