3d-tracker.ru • Просмотр темы - Человек-паук: Возвращение домой в 3Д / Spider-Man: Homecoming 3D (2017) [BDRip by SOLdAt, 1080p, Zoom Half OverUnder / Вертикальная анаморфная стереопара на весь экран]

Регистрация Имя: Пароль: Запомнить Забыли пароль?



Правила форума





Начать новую тему Ответить на тему  [ 1 сообщение ] 
Статистика раздачи
Размер: 9.25 ГБ | Зарегистрирован: 07 окт 2017, 09:03 | .torrent скачан: 22
Сиды: 14 [0 байт/сек]    Личи: 1 [58.16 КБ/сек]
Автор Сообщение
 СообщениеДобавлено: 07 окт 2017, 09:03 
Не в сети
Супермодератор
Аватара пользователя
Зарегистрирован: 15 апр 2014, 21:21
Торренты: 475
Раздал: 35.02 ТБ 
Скачал: 1.83 ТБ 
Ратио: 30.201
Спасибо: 2747 / 192
Сообщения: 627
Комментарии: 281
Откуда: РОССИЯ, ЦФО

Год выпуска: 2017
Страна: США
Жанр: фантастика, боевик, приключения
Продолжительность: 02:05:51
Перевод: Профессиональный (полное дублирование) [iTunes]

Режиссер: Джон Уоттс / Jon Watts
В ролях: Том Холланд, Роберт Дауни мл., Майкл Китон, Мариса Томей, Джон Фавро, Джейкоб Баталон, Зендея, Лора Хэрриер, Тони Револори, Дональд Гловер, Гвинет Пэлтроу, Боким Вудбайн, Тайн Дейли, Абрам Атта, Хэннибал Бёресс, Кеннет Чои
Описание: После исторической встречи с командой Мстителей Питер Паркер возвращается домой, стараясь зажить обычной жизнью под опекой своей тёти Мэй. Но теперь за Питером приглядывает ещё кое-что… Тони Старк видел Человека-Паука в деле и должен стать его наставником. Когда новый злодей Стервятник угрожает уничтожить всё, что дорого Питеру, приходит время доказать всем, что такое настоящий супергерой.

Качество: BDRip (1080p)
Видео: 1920x1080, 23,976 fps, AVC, ~9900 kбит/с
Аудио: 48.0 kHz, AC3 6 ch, 448 kbps
Размер: 9,25 Гб

Формат 3D: Zoom Half OverUnder / Вертикальная анаморфная стереопара (16:9)
Порядок ракурсов: Левый-первый
Полное имя : E:\AV\Spider-Man Homecoming.2017.3D.1080p.Zoom-HOU.by_SOLdAt.mkv
Формат : Matroska
Версия формата : Version 4 / Version 2
Размер файла : 9,25 Гбайт
Название фильма : from SOLdAt
Дата кодирования : UTC 2017-10-07 03:10:54
Программа кодирования : mkvmerge v8.3.0 ('Over the Horizon') 64bit
Библиотека кодирования : libebml v1.3.1 + libmatroska v1.4.2
Attachements : Cover.jpg
DURATION : 02:05:51.481000000

Видео
Идентификатор : 1
Формат : AVC
Формат/Информация : Advanced Video Codec
Профиль формата : High@4.0
Параметр CABAC формата : Да
Параметр ReFrames формата : 2 кадрa
Идентификатор кодека : V_MPEG4/ISO/AVC
Битрейт : 9860 Кбит/сек
Ширина : 1920 пикселей
Высота : 1080 пикселей
Соотношение сторон : 16:9
Режим частоты кадров : Постоянный
Частота кадров : 23,976 кадра/сек
Цветовое пространство : YUV
Субдискретизация насыщенности : 4:2:0
Битовая глубина : 8 бит
Тип развёртки : Прогрессивная
Бит/(Пиксели*Кадры) : 0.198
Размер потока : 8,67 Гбайт (94%)
Заголовок : 1080p, Zoom HOU
Язык : English
Default : Да
Forced : Нет

Аудио
Идентификатор : 2
Формат : AC-3
Формат/Информация : Audio Coding 3
Расширение режима : CM (complete main)
Параметр Endianness формата : Big
Идентификатор кодека : A_AC3
Вид битрейта : Постоянный
Битрейт : 448 Кбит/сек
Каналы : 6 каналов
Расположение каналов : Front: L C R, Side: L R, LFE
Частота : 48,0 КГц
Битовая глубина : 16 бит
Размер потока : 403 Мбайт (4%)
Заголовок : itunes - 6 ch, 448 kbs
Язык : Russian
Default : Да
Forced : Нет

Информация о торренте
Торрент:  Зарегистрирован [07 окт 2017, 09:03] Для скачивания необходимо Зарегистрироваться!



Если Вы уже зарегистрированы, то авторизуйтесь на трекере!
Статус:  
Размер:  9.25 ГБ (9 927 657 089 байт)
Приватный:  Нет (DHT включён)
Хэш:  ed61aee764e3e7f0de4f
5fe1c0cb042cf7eea946
Здоровье:  100%
.torrent скачан:  22
Как тут качать  Правила, основные инструкции, FAQ-и



_________________


 Профиль  
 
Показать сообщения за:  Поле сортировки  
Начать новую тему Ответить на тему  [ 1 сообщение ] 


Кто сейчас на трекере

Сейчас этот форум просматривают: нет зарегистрированных пользователей и гости: 4


Вы не можете начинать темы
Вы не можете отвечать на сообщения
Вы не можете редактировать свои сообщения
Вы не можете удалять свои сообщения
Вы не можете добавлять вложения

Найти:


Правообладателям

!ВНИМАНИЕ!
Ресурс не предоставляет электронные версии произведений, а занимается лишь коллекционированием и каталогизацией ссылок, присылаемых и публикуемых на форуме нашими читателями. Если вы являетесь правообладателем какого-либо представленного материала и не желаете чтобы ссылка на него находилась в нашем каталоге, свяжитесь с нами и мы незамедлительно удалим её. Файлы для обмена на трекере предоставлены пользователями сайта, и администрация не несёт ответственности за их содержание. Просьба не заливать файлы, защищенные авторскими правами, а также файлы нелегального содержания!
cron
Вверх страницы
Вниз страницы
ppkBB3cker v.2 © 2008-2011 @ PPK