3d-tracker.ru • Просмотр темы - Космические яйца в 3Д / Spaceballs 3D (1987) [1080p, Half Side-By-Side / Горизонтальная анаморфная стереопара на весь экран]

Регистрация Имя: Пароль: Запомнить Забыли пароль?



Правила форума





Начать новую тему Ответить на тему  [ 1 сообщение ] 
Статистика раздачи
Размер: 5.74 ГБ | Зарегистрирован: 11 окт 2017, 10:14 | .torrent скачан: 3
Сиды: 0 [0 байт/сек]    Личи: 1 [0 байт/сек]
Автор Сообщение
 СообщениеДобавлено: 11 окт 2017, 10:14 
В сети
Супермодератор
Аватара пользователя
Зарегистрирован: 15 апр 2014, 21:21
Торренты: 501
Раздал: 35.28 ТБ 
Скачал: 1.83 ТБ 
Ратио: 30.347
Спасибо: 2878 / 200
Сообщения: 663
Комментарии: 305
Откуда: РОССИЯ, ЦФО

Название: Космические яйца (Космобольцы)
Оригинальное название: Spaceballs
Год выхода: 1987
Жанр: фантастика, комедия, приключения, пародия
Продолжительность: 01:30:48

Режиссер: Мел Брукс
В ролях: Мел Брукс, Рик Моранис, Билл Пуллмэн, Джон Кэнди, Дэфни Зунига, Дик Ван Паттен
О фильме : Обитатели планеты Космические Яйца бездарно растранжирив атмосферу собственной планеты пытаются похитить атмосферу у соседней планеты Друидия. Чтобы заставить короля Друидии открыть щит, защищающий атмосферу планету, агрессоры похищают его дочь - принцессу Веспу. Король планеты Друидия обращается к единственному, кто может сорвать планы злодеев, космическому герою Одинокому Звезде. Вместе со своим компаньоном, человеко-псом, они вступают в борьбу...

Качество: (1080p)
Видео: 1920x1080, 23,976 fps, AVC, ~8700 kбит/сек
Аудио: 48.0 kHz, AC3, 2 ch, 192 kbps
Размер: 5,74 Гб

Формат 3D: Half SideBySide / Горизонтальная анаморфная стереопара (16:9)
Порядок ракурсов: Левый-первый
Полное имя : E:\AV\Spaceballs.1987.3d.100p.H-SBS.mkv
Формат : Matroska
Версия формата : Version 4 / Version 2
Размер файла : 5,74 Гбайт
Дата кодирования : UTC 2017-10-11 03:54:52
Программа кодирования : mkvmerge v8.3.0 ('Over the Horizon') 64bit
Библиотека кодирования : libebml v1.3.1 + libmatroska v1.4.2
DURATION : 01:30:48.144000000

Видео
Идентификатор : 1
Формат : AVC
Формат/Информация : Advanced Video Codec
Профиль формата : High@L4.0
Параметр CABAC формата : Да
Параметр ReFrames формата : 2 кадра
Параметр GOP формата : M=3, N=18
Идентификатор кодека : V_MPEG4/ISO/AVC
Битрейт : 8677 Кбит/сек
Ширина : 1920 пикселей
Высота : 1080 пикселей
Соотношение сторон : 16:9
Режим частоты кадров : Постоянный
Частота кадров : 23,976 кадра/сек
Цветовое пространство : YUV
Субдискретизация насыщенности : 4:2:0
Битовая глубина : 8 бит
Тип развёртки : Прогрессивная
Бит/(Пиксели*Кадры) : 0.175
Размер потока : 5,50 Гбайт (96%)
Язык : English
Default : Да
Forced : Нет

Аудио
Идентификатор : 2
Формат : AC-3
Формат/Информация : Audio Coding 3
Расширение режима : CM (complete main)
Параметр Endianness формата : Big
Идентификатор кодека : A_AC3
Вид битрейта : Постоянный
Битрейт : 192 Кбит/сек
Каналы : 2 канала
Расположение каналов : Front: L R
Частота : 48,0 КГц
Битовая глубина : 16 бит
Размер потока : 125 Мбайт (2%)
Язык : Russian
Default : Да
Forced : Нет

Информация о торренте
Торрент:  Зарегистрирован [11 окт 2017, 10:14] Для скачивания необходимо Зарегистрироваться!



Если Вы уже зарегистрированы, то авторизуйтесь на трекере!
Статус:  
Размер:  5.74 ГБ (6 162 582 652 байт)
Приватный:  Нет (DHT включён)
Хэш:  aa98c730dc54b9a14227
41e7fef6be73e306e3a2
Здоровье:  ???%
.torrent скачан:  3
Как тут качать  Правила, основные инструкции, FAQ-и



_________________


 Профиль  
 
Показать сообщения за:  Поле сортировки  
Начать новую тему Ответить на тему  [ 1 сообщение ] 


Кто сейчас на трекере

Сейчас этот форум просматривают: Google [Bot], Majestic-12 [Bot] и гости: 4


Вы не можете начинать темы
Вы не можете отвечать на сообщения
Вы не можете редактировать свои сообщения
Вы не можете удалять свои сообщения
Вы не можете добавлять вложения

Найти:


Правообладателям

!ВНИМАНИЕ!
Ресурс не предоставляет электронные версии произведений, а занимается лишь коллекционированием и каталогизацией ссылок, присылаемых и публикуемых на форуме нашими читателями. Если вы являетесь правообладателем какого-либо представленного материала и не желаете чтобы ссылка на него находилась в нашем каталоге, свяжитесь с нами и мы незамедлительно удалим её. Файлы для обмена на трекере предоставлены пользователями сайта, и администрация не несёт ответственности за их содержание. Просьба не заливать файлы, защищенные авторскими правами, а также файлы нелегального содержания!
cron
Вверх страницы
Вниз страницы
ppkBB3cker v.2 © 2008-2011 @ PPK