3d-tracker.ru • Просмотр темы - Секс-Трип в 3Д / The Sex Trip 3D (2017) [1080p, Half Side-By-Side / Горизонтальная анаморфная стереопара на весь экран]

Регистрация Имя: Пароль: Запомнить Забыли пароль?



Правила форума





Начать новую тему Ответить на тему  [ Сообщений: 2 ] 
Статистика раздачи
Размер: 5.06 ГБ | Зарегистрирован: 11 окт 2017, 10:43 | .torrent скачан: 7
Сиды: 2 [0 байт/сек]    Личи: 4 [0 байт/сек]
Автор Сообщение
 СообщениеДобавлено: 11 окт 2017, 10:26 
В сети
Супермодератор
Аватара пользователя
Зарегистрирован: 15 апр 2014, 21:21
Торренты: 501
Раздал: 35.28 ТБ 
Скачал: 1.83 ТБ 
Ратио: 30.347
Спасибо: 2878 / 200
Сообщения: 663
Комментарии: 305
Откуда: РОССИЯ, ЦФО

16+

Страна: США
Производство: Bridgegate FIlms
Год выпуска: 2017
Жанр: фэнтези, комедия

Режиссер: Энтони Дж. Коэн
Авторы сценария: Марк Прей, Энтони Дж. Коэн
В ролях: Джейд Рэмси, Луис Мэндилор, Марк Крамптон, Шарлотта Эллен Прайс, Рэйчел Бритаг, Наташа Бласик, Ребекка Грант, Джим Хэнкс
Описание: Всего себя красавчик Эдди Гринлиф посвятил искусству соблазнения женщин. Эдди ведёт тренинги, пишет книги, раздаёт интервью и каждый божий день применяет свои теории на практике, укладывая в свою постель самых привлекательных представительниц прекрасного пола. Однако такая озабоченная-беззаботная жизнь просто не могла длиться вечно и сама судьба в виде уродливой ведьмы наказала Эдди. Как-то раз, направляясь на вечерику, Эдди повстречал старуху, которая потребовала его поцелуй. «Бабуля, тебе со мной не светит» — отшутился Эдди и отправился на очередные подвиги. Однако утром он к своему тотальному удивлению обнаружил, что превратился в привлекательную брюнетку Эдну! Что же делать..? Как вернуть свое тело..?

Перевод: Профессиональный (полное дублирование) | iTunes
Субтитры: нет
Продолжительность: 01:12:22

Качество: (1080p)
Видео: 1920x1080, 23,976 fps, AVC, ~9600 kбит/сек
Аудио: 48.0 kHz, AC3, 2 ch, 192 kbps
Размер: 5,06 Гб

Формат 3D: Half SideBySide / Горизонтальная анаморфная стереопара (16:9)
Порядок ракурсов: Левый-первый
Полное имя : E:\AV\Seks.trip.2017.1080p.3D.H-SBS.mkv
Формат : Matroska
Версия формата : Version 4 / Version 2
Размер файла : 5,06 Гбайт
Дата кодирования : UTC 2017-10-10 17:38:34
Программа кодирования : mkvmerge v7.1.0 ('Good Love') 64bit
Библиотека кодирования : libebml v1.3.0 + libmatroska v1.4.1
DURATION : 01:12:21.760000000

Видео
Идентификатор : 1
Формат : AVC
Формат/Информация : Advanced Video Codec
Профиль формата : High@L4.0
Параметр CABAC формата : Да
Параметр ReFrames формата : 2 кадра
Параметр GOP формата : M=3, N=18
Идентификатор кодека : V_MPEG4/ISO/AVC
Битрейт : 9612 Кбит/сек
Ширина : 1920 пикселей
Высота : 1080 пикселей
Соотношение сторон : 16:9
Режим частоты кадров : Постоянный
Частота кадров : 23,976 кадра/сек
Цветовое пространство : YUV
Субдискретизация насыщенности : 4:2:0
Битовая глубина : 8 бит
Тип развёртки : Прогрессивная
Бит/(Пиксели*Кадры) : 0.193
Размер потока : 4,86 Гбайт (96%)
Язык : English
Default : Да
Forced : Нет

Аудио
Идентификатор : 2
Формат : AC-3
Формат/Информация : Audio Coding 3
Расширение режима : CM (complete main)
Параметр Endianness формата : Big
Идентификатор кодека : A_AC3
Вид битрейта : Постоянный
Битрейт : 192 Кбит/сек
Каналы : 2 канала
Расположение каналов : Front: L R
Частота : 48,0 КГц
Битовая глубина : 16 бит
Размер потока : 99,4 Мбайт (2%)
Язык : Russian
Default : Да
Forced : Нет

Информация о торренте
Торрент:  Зарегистрирован [11 окт 2017, 10:43] Для скачивания необходимо Зарегистрироваться!



Если Вы уже зарегистрированы, то авторизуйтесь на трекере!
Статус:  
Размер:  5.06 ГБ (5 428 675 121 байт)
Приватный:  Нет (DHT включён)
Хэш:  1b23bcb7f5909b8a4c8a
0b5a942f590f7cf69d47
Здоровье:  50%
.torrent скачан:  7
Как тут качать  Правила, основные инструкции, FAQ-и



_________________


 Профиль  
 
 СообщениеДобавлено: 11 окт 2017, 10:32 
Не в сети
Модератор
Аватара пользователя
Зарегистрирован: 30 авг 2016, 14:54
Торренты: 122
Раздал: 511.48 ГБ 
Скачал: 32.89 ГБ 
Ратио: 15.550
Спасибо: 718 / 348
Сообщения: 133
Комментарии: 24
Сюжетец - не Нов!
Но поржать можно!
:co_ol:

_________________


 Профиль  
 
Показать сообщения за:  Поле сортировки  
Начать новую тему Ответить на тему  [ Сообщений: 2 ] 


Кто сейчас на трекере

Сейчас этот форум просматривают: нет зарегистрированных пользователей и гости: 3


Вы не можете начинать темы
Вы не можете отвечать на сообщения
Вы не можете редактировать свои сообщения
Вы не можете удалять свои сообщения
Вы не можете добавлять вложения

Найти:


Правообладателям

!ВНИМАНИЕ!
Ресурс не предоставляет электронные версии произведений, а занимается лишь коллекционированием и каталогизацией ссылок, присылаемых и публикуемых на форуме нашими читателями. Если вы являетесь правообладателем какого-либо представленного материала и не желаете чтобы ссылка на него находилась в нашем каталоге, свяжитесь с нами и мы незамедлительно удалим её. Файлы для обмена на трекере предоставлены пользователями сайта, и администрация не несёт ответственности за их содержание. Просьба не заливать файлы, защищенные авторскими правами, а также файлы нелегального содержания!
cron
Вверх страницы
Вниз страницы
ppkBB3cker v.2 © 2008-2011 @ PPK