3d-tracker.ru • Просмотр темы - Лиловый шар / 3D (1987) [1080p, Half Side-By-Side / Горизонтальная анаморфная стереопара на весь экран]

Регистрация Имя: Пароль: Запомнить Забыли пароль?



Правила форума





Начать новую тему Ответить на тему  [ Сообщений: 3 ] 
Статистика раздачи
Размер: 5.14 ГБ | Зарегистрирован: 12 окт 2017, 08:53 | .torrent скачан: 7
Сиды: 3 [0 байт/сек]    Личи: 1 [0 байт/сек]
Автор Сообщение
 СообщениеДобавлено: 12 окт 2017, 08:53 
В сети
Супермодератор
Аватара пользователя
Зарегистрирован: 15 апр 2014, 21:21
Торренты: 501
Раздал: 35.28 ТБ 
Скачал: 1.83 ТБ 
Ратио: 30.347
Спасибо: 2878 / 200
Сообщения: 663
Комментарии: 305
Откуда: РОССИЯ, ЦФО


Название: Лиловый шар
Год выхода: 1987
Жанр: Фантастика, детский, семейный, сказка
Страна: СССР
Студия: Киностудия им. Горького
Продолжительность: 01:13:18

Режиссёр: Павел Арсенов
В ролях: Наталья Гусева, Александр Гусев, Вячеслав Невинный, Борис Щербаков, Вячеслав Баранов, Светлана Харитонова, Игорь Ясулович, Виктор Павлов, Сергей Никоненко, Владимир Носик
О фильме: Сказочная история, произошедшая в 21 веке. Экипаж космического корабля обнаруживает в заброшенном инопланетном корабле данные о доставленном на Землю много тысяч лет назад лиловом шаре, в котором находится вирус вражды. Этот вирус может привести к гибели людей. Героиня фильма — бесстрашная девочка Алиса на машине времени отправляется в эпоху легенд, чтобы найти и обезвредить лиловый шар...

Качество: (1080p)
Видео: 1920x1080, 23,976 fps, AVC, ~9500 kбит/сек
Аудио: 48.0 kHz, AC3, 6 ch, 384 kbps
Размер: 5,14 Гб

Формат 3D: Half SideBySide / Горизонтальная анаморфная стереопара (16:9)
Порядок ракурсов: Левый-первый
Полное имя : E:\AV\Lilovii.char.1987.3D.1080p.Z-HSBS.by_Unter59.mkv
Формат : Matroska
Версия формата : Version 4 / Version 2
Размер файла : 5,14 Гбайт
Название фильма : Лиловый шар(1987)3d from Unter59
Дата кодирования : UTC 2017-10-12 02:46:28
Программа кодирования : mkvmerge v7.1.0 ('Good Love') 64bit
Библиотека кодирования : libebml v1.3.0 + libmatroska v1.4.1
Attachements : Cover.JPG
DURATION : 01:13:17.952000000

Видео
Идентификатор : 1
Формат : AVC
Формат/Информация : Advanced Video Codec
Профиль формата : High@L4.0
Параметр CABAC формата : Да
Параметр ReFrames формата : 2 кадра
Параметр GOP формата : M=3, N=24
Идентификатор кодека : V_MPEG4/ISO/AVC
Битрейт : 9458 Кбит/сек
Ширина : 1920 пикселей
Высота : 1080 пикселей
Соотношение сторон : 16:9
Режим частоты кадров : Постоянный
Частота кадров : 23,976 кадра/сек
Цветовое пространство : YUV
Субдискретизация насыщенности : 4:2:0
Битовая глубина : 8 бит
Тип развёртки : Прогрессивная
Бит/(Пиксели*Кадры) : 0.190
Размер потока : 4,84 Гбайт (94%)
Заголовок : Zoom Hou, 1080p
Язык : English
Default : Да
Forced : Нет

Аудио
Идентификатор : 2
Формат : AC-3
Формат/Информация : Audio Coding 3
Расширение режима : CM (complete main)
Параметр Endianness формата : Big
Идентификатор кодека : A_AC3
Вид битрейта : Постоянный
Битрейт : 384 Кбит/сек
Каналы : 6 каналов
Расположение каналов : Front: L C R, Side: L R, LFE
Частота : 48,0 КГц
Битовая глубина : 16 бит
Размер потока : 201 Мбайт (4%)
Заголовок : 6 ch, 384 kbs
Язык : Russian
Default : Да
Forced : Нет

Информация о торренте
Торрент:  Зарегистрирован [12 окт 2017, 08:53] Для скачивания необходимо Зарегистрироваться!



Если Вы уже зарегистрированы, то авторизуйтесь на трекере!
Статус:  
Размер:  5.14 ГБ (5 520 352 866 байт)
Приватный:  Нет (DHT включён)
Хэш:  035bd38859186f46c387
46a0247184b4074cad3e
Здоровье:  100%
.torrent скачан:  7
Как тут качать  Правила, основные инструкции, FAQ-и



_________________


 Профиль  
 
 СообщениеДобавлено: 12 окт 2017, 16:49 
Не в сети
заглянувший
Аватара пользователя
Зарегистрирован: 03 мар 2016, 15:54
Торренты: 0
Раздал: 886.07 ГБ 
Скачал: 676.4 ГБ 
Ратио: 1.310
Спасибо: 0 / 155
Сообщения: 11
Комментарии: 14
Откуда: москва
:-): спасибо :-):


 Профиль  
 
 СообщениеДобавлено: 12 окт 2017, 19:32 
В сети
Супермодератор
Аватара пользователя
Зарегистрирован: 15 апр 2014, 21:21
Торренты: 501
Раздал: 35.28 ТБ 
Скачал: 1.83 ТБ 
Ратио: 30.347
Спасибо: 2878 / 200
Сообщения: 663
Комментарии: 305
Откуда: РОССИЯ, ЦФО
Пожалуста!

_________________


 Профиль  
 
Показать сообщения за:  Поле сортировки  
Начать новую тему Ответить на тему  [ Сообщений: 3 ] 


Кто сейчас на трекере

Сейчас этот форум просматривают: нет зарегистрированных пользователей и гости: 1


Вы не можете начинать темы
Вы не можете отвечать на сообщения
Вы не можете редактировать свои сообщения
Вы не можете удалять свои сообщения
Вы не можете добавлять вложения

Найти:


Правообладателям

!ВНИМАНИЕ!
Ресурс не предоставляет электронные версии произведений, а занимается лишь коллекционированием и каталогизацией ссылок, присылаемых и публикуемых на форуме нашими читателями. Если вы являетесь правообладателем какого-либо представленного материала и не желаете чтобы ссылка на него находилась в нашем каталоге, свяжитесь с нами и мы незамедлительно удалим её. Файлы для обмена на трекере предоставлены пользователями сайта, и администрация не несёт ответственности за их содержание. Просьба не заливать файлы, защищенные авторскими правами, а также файлы нелегального содержания!
cron
Вверх страницы
Вниз страницы
ppkBB3cker v.2 © 2008-2011 @ PPK