3d-tracker.ru • Просмотр темы - На пятьдесят оттенков темнее в 3Д / Fifty Shades Darker 3D (2017) [BDRip, 1080p, Zoom Half OverUnder / Вертикальная анаморфная пара на весь экран]

Регистрация Имя: Пароль: Запомнить Забыли пароль?



Правила форума





Начать новую тему Ответить на тему  [ 1 сообщение ] 
Статистика раздачи
Размер: 6.9 ГБ | Зарегистрирован: 13 окт 2017, 20:39 | .torrent скачан: 7
Сиды: 0 [0 байт/сек]    Личи: 2 [0 байт/сек]
Автор Сообщение
 СообщениеДобавлено: 13 окт 2017, 20:39 
Не в сети
Бывалый
Зарегистрирован: 07 июн 2014, 08:13
Торренты: 70
Раздал: 2.18 ТБ 
Скачал: 1.07 ТБ 
Ратио: 2.034
Спасибо: 294 / 650
Сообщения: 177
Комментарии: 173

18+

Название: На пятьдесят оттенков темнее
Оригинальное название: Fifty Shades Darker
Год выхода: 2017
Жанр: Драма, мелодрама

Режиссер: Джеймс Фоули
В ролях: Дакота Джонсон, Джейми Дорнан, Эрик Джонсон, Элоиза Мамфорд, Белла Хиткот, Рита Ора, Люк Граймс, Виктор Расук, Макс Мартини, Брюс Олтмен
О фильме: Продолжение известной своей весьма селективной эротической направленностью экранизации романа Э.Л.Джеймс «Пятьдесят оттенков серого». Действующие лица все те же - приятного вида молодой любитель затейливо получаемых острых ощущений, обремененный ношей миллиардного состояния и юная, некогда романтично настроенная барышня. Однако расстановка силовых позиций в сформировавшейся паре медленно, но верно движется в сторону триллера: отношения между Анастейшей и Кристианом обостряются, когда в поле зрения появляются бывшие любовницы миллиардера - опытная и самоуверенная Элена (Ким Бейсингер) и крайне эмоциональная Лейла (Белла Хиткот). Итак, многогранный своими оттенками четырехугольник, психологические демоны Кристиана и неукротимая ревность Анастейши во второй части киноромана

Страна: США
Студия: Universal Pictures
Продолжительность: 02:04:06
Перевод: Дублированный | Лицензия

Качество: BDRip (1080p)
Видео: AVC, 1920x1080, ~7400 kbit/s, 23.976 fps
Аудио: 48 kHz, AC3, 5.1, 448 Kbps | Дублированный | RUS
Размер: 6,90 Гб

Формат 3D: Zoom Half OverUnder / Вертикальная анаморфная стереопара (16:9)
Порядок ракурсов: Левый-первый
Полное имя : F:\AiV\Fifty.Shades.Darker.2017.3d.mkv
Формат : Matroska
Версия формата : Version 4 / Version 2
Размер файла : 6,90 Гбайт
Программа кодирования : mkvmerge v8.3.0 ('Over the Horizon') 64bit
Библиотека кодирования : libebml v1.3.1 + libmatroska v1.4.2
DURATION : 02:04:06.225000000

Видео
Идентификатор : 1
Формат : AVC
Формат/Информация : Advanced Video Codec
Профиль формата : High@L4.0
Параметр CABAC формата : Да
Параметр ReFrames формата : 2 кадра
Идентификатор кодека : V_MPEG4/ISO/AVC
Битрейт : 7357 Кбит/сек
Ширина : 1920 пикселей
Высота : 1080 пикселей
Соотношение сторон : 16:9
Режим частоты кадров : Постоянный
Частота кадров : 23,976 кадра/сек
Цветовое пространство : YUV
Субдискретизация насыщенности : 4:2:0
Битовая глубина : 8 бит
Тип развёртки : Прогрессивная
Бит/(Пиксели*Кадры) : 0.148
Размер потока : 6,38 Гбайт (92%)
Язык : English
Default : Да
Forced : Нет

Аудио
Идентификатор : 2
Формат : AC-3
Формат/Информация : Audio Coding 3
Расширение режима : CM (complete main)
Параметр Endianness формата : Big
Идентификатор кодека : A_AC3
Вид битрейта : Постоянный
Битрейт : 448 Кбит/сек
Каналы : 6 каналов
Расположение каналов : Front: L C R, Side: L R, LFE
Частота : 48,0 КГц
Битовая глубина : 16 бит
Размер потока : 398 Мбайт (6%)
Язык : Russian
Default : Да
Forced : Нет

Информация о торренте
Торрент:  Зарегистрирован [13 окт 2017, 20:39] Для скачивания необходимо Зарегистрироваться!



Если Вы уже зарегистрированы, то авторизуйтесь на трекере!
Статус:   изменил Soldat (13 окт 2017, 22:30)
Размер:  6.9 ГБ (7 411 895 375 байт)
Приватный:  Нет (DHT включён)
Хэш:  d2938a75da2e6bca5b17
bf04c478ba4f65c79887
Здоровье:  ???%
.torrent скачан:  7
Как тут качать  Правила, основные инструкции, FAQ-и




 Профиль  
 
Показать сообщения за:  Поле сортировки  
Начать новую тему Ответить на тему  [ 1 сообщение ] 


Кто сейчас на трекере

Сейчас этот форум просматривают: Google [Bot] и гости: 5


Вы не можете начинать темы
Вы не можете отвечать на сообщения
Вы не можете редактировать свои сообщения
Вы не можете удалять свои сообщения
Вы не можете добавлять вложения

Найти:


Правообладателям

!ВНИМАНИЕ!
Ресурс не предоставляет электронные версии произведений, а занимается лишь коллекционированием и каталогизацией ссылок, присылаемых и публикуемых на форуме нашими читателями. Если вы являетесь правообладателем какого-либо представленного материала и не желаете чтобы ссылка на него находилась в нашем каталоге, свяжитесь с нами и мы незамедлительно удалим её. Файлы для обмена на трекере предоставлены пользователями сайта, и администрация не несёт ответственности за их содержание. Просьба не заливать файлы, защищенные авторскими правами, а также файлы нелегального содержания!
cron
Вверх страницы
Вниз страницы
ppkBB3cker v.2 © 2008-2011 @ PPK