3d-tracker.ru • Просмотр темы - Руководство для начинающих по снафф-видео в 3Д / A Beginner's Guide to Snuff 3D (2016) [1080p, Zoom Half OverUnder / Вертикальная анаморфная пара на весь экран]

Регистрация Имя: Пароль: Запомнить Забыли пароль?



Правила форума





Начать новую тему Ответить на тему  [ 1 сообщение ] 
Статистика раздачи
Размер: 1.52 ГБ | Зарегистрирован: 24 окт 2017, 09:51 | .torrent скачан: 2
Сиды: 0 [0 байт/сек]    Личи: 2 [0 байт/сек]
Автор Сообщение
 СообщениеДобавлено: 24 окт 2017, 09:51 
Не в сети
Бывалый
Зарегистрирован: 07 июн 2014, 08:13
Торренты: 70
Раздал: 2.18 ТБ 
Скачал: 1.07 ТБ 
Ратио: 2.034
Спасибо: 294 / 650
Сообщения: 177
Комментарии: 173

2Д->3D

Название: Руководство для начинающих по снафф-видео
Оригинальное название: A Beginner's Guide to Snuff
Год выпуска: 2016
Жанр: Ужасы, триллер, комедия
Выпущено: США, Indie Entertainment, San Francisco Independent Cinema, Two Masked Men

Режиссер: Митчелл Алтери
В ролях: Джои Керн, Люк Эдвардс, Бри Уильямсон, Брэд Гринквист, Картер МакИнтайр, Кэролайн Эднамс, Кимберли Кроссман, Альфонсо Фаустино
О фильме: Два великовозрастных раздолбая решили разбогатеть, сняв снафф-фильм (в которых изображаются настоящие убийства), и устроили кастинг на роль главной героини. Проблема в том, что её забыли предупредить, что убивать её будут не по настоящему. Месть актрисы будет ужасна.

Страна: США
Продолжительность: 01:20:49
Перевод: Любительский (одноголосый) (ХиХиДок)

Качество: (1080p)
Видео: AVC, 1920x1080, 2500 kbit/s, 23.976 fps
Аудио: 48 kHz, AC3, 2 ch, 192 kbps
Размер: 1,52 Гб

Формат 3D: Zoom Half OverUnder / Вертикальная анаморфная стереопара (16:9)
Порядок ракурсов: Левый-первый
Формат : Matroska
Версия формата : Version 4 / Version 2
Размер файла : 1,52 Гбайт
Название фильма : A.Beginner's.Guide.to.Snuff.2016
Программа кодирования : mkvmerge v7.1.0
Библиотека кодирования : libebml v1.3.0 + libmatroska v1.4.1
DURATION : 01:20:48.978000000

Видео
Идентификатор : 1
Формат : AVC
Формат/Информация : Advanced Video Codec
Профиль формата : High@L4.0
Параметр CABAC формата : Да
Параметр ReFrames формата : 4 кадра
Идентификатор кодека : V_MPEG4/ISO/AVC
Битрейт : 2500 Кбит/сек
Ширина : 1920 пикселей
Высота : 1080 пикселей
Соотношение сторон : 16:9
Режим частоты кадров : Постоянный
Частота кадров : 23,976 кадра/сек
Цветовое пространство : YUV
Субдискретизация насыщенности : 4:2:0
Битовая глубина : 8 бит
Тип развёртки : Прогрессивная
Бит/(Пиксели*Кадры) : 0.050
Размер потока : 1,38 Гбайт (91%)
Язык : English
Default : Да
Forced : Нет

Аудио
Идентификатор : 2
Формат : AC-3
Формат/Информация : Audio Coding 3
Расширение режима : CM (complete main)
Параметр Endianness формата : Big
Идентификатор кодека : A_AC3
Вид битрейта : Постоянный
Битрейт : 192 Кбит/сек
Каналы : 2 канала
Расположение каналов : Front: L R
Частота : 48,0 КГц
Битовая глубина : 16 бит
Размер потока : 111 Мбайт (7%)
Язык : Russian
Default : Да
Forced : Нет

Информация о торренте
Торрент:  Зарегистрирован [24 окт 2017, 09:51] Для скачивания необходимо Зарегистрироваться!



Если Вы уже зарегистрированы, то авторизуйтесь на трекере!
Статус:   изменил Ru_A50 (24 окт 2017, 10:03)
Размер:  1.52 ГБ (1 632 420 115 байт)
Приватный:  Нет (DHT включён)
Хэш:  b8fa36edc13acc05ab6d
b10d9f59236f4d128c14
Здоровье:  ???%
.torrent скачан:  2
Как тут качать  Правила, основные инструкции, FAQ-и




 Профиль  
 
Показать сообщения за:  Поле сортировки  
Начать новую тему Ответить на тему  [ 1 сообщение ] 


Кто сейчас на трекере

Сейчас этот форум просматривают: Yandex [Bot] и гости: 6


Вы не можете начинать темы
Вы не можете отвечать на сообщения
Вы не можете редактировать свои сообщения
Вы не можете удалять свои сообщения
Вы не можете добавлять вложения

Найти:


Правообладателям

!ВНИМАНИЕ!
Ресурс не предоставляет электронные версии произведений, а занимается лишь коллекционированием и каталогизацией ссылок, присылаемых и публикуемых на форуме нашими читателями. Если вы являетесь правообладателем какого-либо представленного материала и не желаете чтобы ссылка на него находилась в нашем каталоге, свяжитесь с нами и мы незамедлительно удалим её. Файлы для обмена на трекере предоставлены пользователями сайта, и администрация не несёт ответственности за их содержание. Просьба не заливать файлы, защищенные авторскими правами, а также файлы нелегального содержания!
cron
Вверх страницы
Вниз страницы
ppkBB3cker v.2 © 2008-2011 @ PPK