3d-tracker.ru • Просмотр темы - Несколько минут после полуночи в 3Д / Minutes Past Midnight 3D (2016) [BDRip, 1080p, Zoom Half OverUnder / Вертикальная анаморфная пара на весь экран]

Регистрация Имя: Пароль: Запомнить Забыли пароль?



Правила форума





Начать новую тему Ответить на тему  [ 1 сообщение ] 
Статистика раздачи
Размер: 1.76 ГБ | Зарегистрирован: 24 окт 2017, 09:59 | .torrent скачан: 6
Сиды: 2 [0 байт/сек]    Личи: 1 [0 байт/сек]
Автор Сообщение
 СообщениеДобавлено: 24 окт 2017, 09:59 
Не в сети
Бывалый
Зарегистрирован: 07 июн 2014, 08:13
Торренты: 70
Раздал: 2.18 ТБ 
Скачал: 1.07 ТБ 
Ратио: 2.034
Спасибо: 303 / 651
Сообщения: 178
Комментарии: 174

2Д->3D

Производство: Канада, Indiecan Entertainment, Rue Morgue Magazine, Unstable Ground Productions
Жанр: Ужасы, Триллер

Режиссер: Ли Кронин
Актеры: Джейсон Флеминг, Барбара Стил, Мика Бурем, Оуэн МакДоннел, Стив Уолл, Артур Дарвилл.
Описание: После полуночи на землю приходит ужас в самых разных своих проявлениях. Демоны, каннибалы, убийцы, призраки и монстры заполоняют мир в таких сверхъестественных, фантастичних и просто ужасных историях. В картине представлено девять мини-фильмов ужасов.

Продолжительность: 01:33:38
Перевод / озвучка: anton1 / Любительский, одноголосый [Хихикающий доктор]

Качество: BDRip (1080p)
Видео: AVC, 1920x1080, 2500 kbit/s, 23.976 fps
Аудио: 48 kHz, AC3, 2 ch, 192 kbps
Размер: 1,76 Гб

Формат 3D: Zoom Half OverUnder / Вертикальная анаморфная стереопара (16:9)
Порядок ракурсов: Левый-первый
Формат : Matroska
Версия формата : Version 4 / Version 2
Размер файла : 1,76 Гбайт
Название фильма : Minutes.Past.Midnight.2016.3d
Программа кодирования : mkvmerge v7.1.0
Библиотека кодирования : libebml v1.3.0 + libmatroska v1.4.1
DURATION : 01:33:38.315000000

Видео
Идентификатор : 1
Формат : AVC
Формат/Информация : Advanced Video Codec
Профиль формата : High@L4.0
Параметр CABAC формата : Да
Параметр ReFrames формата : 4 кадра
Идентификатор кодека : V_MPEG4/ISO/AVC
Битрейт : 2500 Кбит/сек
Ширина : 1920 пикселей
Высота : 1080 пикселей
Соотношение сторон : 16:9
Режим частоты кадров : Постоянный
Частота кадров : 23,976 кадра/сек
Цветовое пространство : YUV
Субдискретизация насыщенности : 4:2:0
Битовая глубина : 8 бит
Тип развёртки : Прогрессивная
Бит/(Пиксели*Кадры) : 0.050
Размер потока : 1,59 Гбайт (91%)
Язык : English
Default : Да
Forced : Нет

Аудио
Идентификатор : 2
Формат : AC-3
Формат/Информация : Audio Coding 3
Расширение режима : CM (complete main)
Параметр Endianness формата : Big
Идентификатор кодека : A_AC3
Вид битрейта : Постоянный
Битрейт : 192 Кбит/сек
Каналы : 2 канала
Расположение каналов : Front: L R
Частота : 48,0 КГц
Битовая глубина : 16 бит
Размер потока : 129 Мбайт (7%)
Язык : Russian
Default : Да
Forced : Нет

Информация о торренте
Торрент:  Зарегистрирован [24 окт 2017, 09:59] Для скачивания необходимо Зарегистрироваться!



Если Вы уже зарегистрированы, то авторизуйтесь на трекере!
Статус:   изменил Ru_A50 (24 окт 2017, 10:03)
Размер:  1.76 ГБ (1 884 752 914 байт)
Приватный:  Нет (DHT включён)
Хэш:  202362d1dd25e6911aa0
d4d340de3c4c857452f7
Здоровье:  100%
.torrent скачан:  6
Как тут качать  Правила, основные инструкции, FAQ-и




 Профиль  
 
Показать сообщения за:  Поле сортировки  
Начать новую тему Ответить на тему  [ 1 сообщение ] 


Кто сейчас на трекере

Сейчас этот форум просматривают: нет зарегистрированных пользователей и гости: 1


Вы не можете начинать темы
Вы не можете отвечать на сообщения
Вы не можете редактировать свои сообщения
Вы не можете удалять свои сообщения
Вы не можете добавлять вложения

Найти:


Правообладателям

!ВНИМАНИЕ!
Ресурс не предоставляет электронные версии произведений, а занимается лишь коллекционированием и каталогизацией ссылок, присылаемых и публикуемых на форуме нашими читателями. Если вы являетесь правообладателем какого-либо представленного материала и не желаете чтобы ссылка на него находилась в нашем каталоге, свяжитесь с нами и мы незамедлительно удалим её. Файлы для обмена на трекере предоставлены пользователями сайта, и администрация не несёт ответственности за их содержание. Просьба не заливать файлы, защищенные авторскими правами, а также файлы нелегального содержания!
cron
Вверх страницы
Вниз страницы
ppkBB3cker v.2 © 2008-2011 @ PPK