3d-tracker.ru • Просмотр темы - Антиматерия в 3Д / Anti Matter 3D (2016) [1080p, Zoom Half OverUnder / Вертикальная анаморфная пара на весь экран]

Регистрация Имя: Пароль: Запомнить Забыли пароль?



Правила форума





Начать новую тему Ответить на тему  [ Сообщений: 5 ] 
Статистика раздачи
Размер: 1.87 ГБ | Зарегистрирован: 29 окт 2017, 17:08 | .torrent скачан: 12
Сиды: 3 [0 байт/сек]    Личи: 1 [0 байт/сек]
Автор Сообщение
 СообщениеДобавлено: 29 окт 2017, 17:08 
Не в сети
Супермодератор
Аватара пользователя
Зарегистрирован: 15 апр 2014, 21:21
Торренты: 519
Раздал: 35.88 ТБ 
Скачал: 1.83 ТБ 
Ратио: 30.674
Спасибо: 3008 / 212
Сообщения: 685
Комментарии: 311
Откуда: РОССИЯ, ЦФО

Наименование: Антиматерия
Оригинальное наименование: Anti Matter
Произведено: Великобритания
Категория: фантастика
Перевод: Любительский многоголосый (GreenРай Studio)
Продолжительность: 01:39:37

Режиссер постановщик: Кейр Берроуз
В главных ролях: Яйза Фигероа, Филиппа Карсон, Том Барбер-Даффи, Ной Максвелл Кларк, Джеймс Фаррар, Иоланда Васкес, Кейси Лоулер, Харри Хейс, Холли Джойс, Джулия Савилл
О фильме: Неожиданно юная аспирантка Оксфорда по имени Ана теряет способность к запоминанию. Виной всему эксперимент, который позволил ей перемещаться с помощью пространственно-временного туннеля. Но удастся ли девушке разобраться с тем, что превратило её жизнь в сущий кошмар, и почему однажды что-то пошло не так?

Качество: (1080p)
Видео: AVC, 1920x1080, 2500 kbit/s, 23.976 fps
Аудио: 48 kHz, AC3, 2 ch, 192 kbps
Размер: 1,76 Гб

Формат 3D: Zoom Half OverUnder / Вертикальная анаморфная стереопара (16:9)
Порядок ракурсов: Левый-первый
Полное имя : E:\AV\Anti.Matter.2016.3d.mkv
Формат : Matroska
Версия формата : Version 4 / Version 2
Размер файла : 1,87 Гбайт
Дата кодирования : UTC 2017-10-29 11:27:03
Программа кодирования : mkvmerge v7.1.0 ('Good Love') 64bit
Библиотека кодирования : libebml v1.3.0 + libmatroska v1.4.1
DURATION : 01:39:36.763000000

Видео
Идентификатор : 1
Формат : AVC
Формат/Информация : Advanced Video Codec
Профиль формата : High@L4.0
Параметр CABAC формата : Да
Параметр ReFrames формата : 4 кадра
Идентификатор кодека : V_MPEG4/ISO/AVC
Битрейт : 2500 Кбит/сек
Ширина : 1920 пикселей
Высота : 1080 пикселей
Соотношение сторон : 16:9
Режим частоты кадров : Постоянный
Частота кадров : 23,976 кадра/сек
Цветовое пространство : YUV
Субдискретизация насыщенности : 4:2:0
Битовая глубина : 8 бит
Тип развёртки : Прогрессивная
Бит/(Пиксели*Кадры) : 0.050
Размер потока : 1,70 Гбайт (91%)
Язык : English
Default : Да
Forced : Нет

Аудио
Идентификатор : 2
Формат : AC-3
Формат/Информация : Audio Coding 3
Расширение режима : CM (complete main)
Параметр Endianness формата : Big
Идентификатор кодека : A_AC3
Вид битрейта : Постоянный
Битрейт : 192 Кбит/сек
Каналы : 2 канала
Расположение каналов : Front: L R
Частота : 48,0 КГц
Битовая глубина : 16 бит
Размер потока : 137 Мбайт (7%)
Язык : Russian
Default : Да
Forced : Нет

Информация о торренте
Торрент:  Зарегистрирован [29 окт 2017, 17:08] Для скачивания необходимо Зарегистрироваться!



Если Вы уже зарегистрированы, то авторизуйтесь на трекере!
Статус:  
Размер:  1.87 ГБ (2 012 342 267 байт)
Приватный:  Нет (DHT включён)
Хэш:  ffe17ff9734087944d72
b71a49ae4a2baba84506
Здоровье:  100%
.torrent скачан:  12
Как тут качать  Правила, основные инструкции, FAQ-и



_________________


 Профиль  
 
 СообщениеДобавлено: 01 ноя 2017, 23:17 
Не в сети
заглянувший
Зарегистрирован: 14 окт 2017, 22:07
Торренты: 0
Раздал: 6 ГБ 
Скачал: 21.25 ГБ 
Ратио: 0.283
Спасибо: 0 / 0
Сообщения: 2
Комментарии: 2
Добрый день!А нет ли версии в 5 канальном звучании?


 Профиль  
 
 СообщениеДобавлено: 02 ноя 2017, 09:33 
Не в сети
Супермодератор
Аватара пользователя
Зарегистрирован: 15 апр 2014, 21:21
Торренты: 519
Раздал: 35.88 ТБ 
Скачал: 1.83 ТБ 
Ратио: 30.674
Спасибо: 3008 / 212
Сообщения: 685
Комментарии: 311
Откуда: РОССИЯ, ЦФО
fregat19531 писал(а):
Добрый день!А нет ли версии в 5 канальном звучании?

Доброго времени суток!
К сожалению нет! И с этим релизом пришлось повозиться!(вырезать видео и ауди рекламу)

_________________


 Профиль  
 
 СообщениеДобавлено: 02 ноя 2017, 21:46 
Не в сети
заглянувший
Зарегистрирован: 14 окт 2017, 22:07
Торренты: 0
Раздал: 6 ГБ 
Скачал: 21.25 ГБ 
Ратио: 0.283
Спасибо: 0 / 0
Сообщения: 2
Комментарии: 2
Soldat писал(а):
И с этим релизом пришлось повозиться!(вырезать видео и ауди рекламу)

Спасибо Вам за титанический труд!Удачи во всех делах!


 Профиль  
 
 СообщениеДобавлено: 03 ноя 2017, 09:42 
Не в сети
Супермодератор
Аватара пользователя
Зарегистрирован: 15 апр 2014, 21:21
Торренты: 519
Раздал: 35.88 ТБ 
Скачал: 1.83 ТБ 
Ратио: 30.674
Спасибо: 3008 / 212
Сообщения: 685
Комментарии: 311
Откуда: РОССИЯ, ЦФО
Пожалуста!И Вам не хворать!

_________________


 Профиль  
 
Показать сообщения за:  Поле сортировки  
Начать новую тему Ответить на тему  [ Сообщений: 5 ] 


Кто сейчас на трекере

Сейчас этот форум просматривают: нет зарегистрированных пользователей и гости: 1


Вы не можете начинать темы
Вы не можете отвечать на сообщения
Вы не можете редактировать свои сообщения
Вы не можете удалять свои сообщения
Вы не можете добавлять вложения

Найти:


Правообладателям

!ВНИМАНИЕ!
Ресурс не предоставляет электронные версии произведений, а занимается лишь коллекционированием и каталогизацией ссылок, присылаемых и публикуемых на форуме нашими читателями. Если вы являетесь правообладателем какого-либо представленного материала и не желаете чтобы ссылка на него находилась в нашем каталоге, свяжитесь с нами и мы незамедлительно удалим её. Файлы для обмена на трекере предоставлены пользователями сайта, и администрация не несёт ответственности за их содержание. Просьба не заливать файлы, защищенные авторскими правами, а также файлы нелегального содержания!
cron
Вверх страницы
Вниз страницы
ppkBB3cker v.2 © 2008-2011 @ PPK