3d-tracker.ru • Просмотр темы - Остров доктора Моро в 3Д / The Island of Dr. Moreau 3D (1996) [BDRip, Half Side-By-Side / Горизонтальная анаморфная пара]

Регистрация Имя: Пароль: Запомнить Забыли пароль?



Правила форума





Начать новую тему Ответить на тему  [ 1 сообщение ] 
Статистика раздачи
Размер: 5.36 ГБ | Зарегистрирован: 31 окт 2017, 21:51 | .torrent скачан: 5
Сиды: 1 [0 байт/сек]    Личи: 4 [0 байт/сек]
Автор Сообщение
 СообщениеДобавлено: 31 окт 2017, 21:52 
Не в сети
Супермодератор
Аватара пользователя
Зарегистрирован: 15 апр 2014, 21:21
Торренты: 519
Раздал: 35.88 ТБ 
Скачал: 1.83 ТБ 
Ратио: 30.674
Спасибо: 3008 / 212
Сообщения: 685
Комментарии: 311
Откуда: РОССИЯ, ЦФО

Название: Остров доктора Моро
Оригинальное название: The Island of Dr. Moreau
Год выхода: 1996
Жанр: ужасы, фантастика, боевик, триллер

Режиссер: Джон Франкенхаймер, Ричард Стэнли
В ролях: Марлон Брандо, Вэл Килмер, Рон Перлман, Дэвид Тьюлис, Файруза Балк, Марко Хофшнайдер, Темуэра Моррисон, Уильям Хуткинс, Даниель Ригни, Нельсон Де Ла Роза
О фильме: После авиакатастрофы над южными водами Тихого океана в живых остается только работник ООН Эдвард Даглас. В бессознательном состоянии его доставляют на удаленный остров. Человека, доставившего его, зовут Монтгомери. По специальности он — нейрохирург.
Вскоре Даглас узнает, что остров принадлежит ученому — доктору Моро, который здесь проводит страшные эксперименты над животными, меняя им генетические коды и пытаясь превратить их в подобие людей. Весь остров населен зверолюдьми. А чтобы держать их в подчинении, ученый ввел каждой особи специальный датчик, при желании доктора вызывающий у подопытного существа болевые ощущения…

Выпущено: США
Продолжительность: 01:35:57
Перевод: Профессиональный (многоголосый)

Качество: BDRip (1080p)
Видео: 1920x800, 24,000 fps, AVC, ~7500 kбит/с
Аудио : 48 kHz, AC3, 5.1 ch, 384 Kbps | RUS
Размер: 5,36 Гб

Формат 3D: Half Side-By-Side / Горизонтальная анаморфная пара
Порядок ракурсов: Левый-первый
Полное имя : E:\AV\Ostrov.Dr.MoRo.1996.3D.mkv
Формат : Matroska
Версия формата : Version 4 / Version 2
Размер файла : 5,36 Гбайт
Название фильма : from Unter59
Дата кодирования : UTC 2017-10-31 16:03:45
Программа кодирования : mkvmerge v7.1.0
Библиотека кодирования : libebml v1.3.0 + libmatroska v1.4.1
Attachements : cover.jpg
DURATION : 01:35:56.991000000

Видео
Идентификатор : 1
Формат : AVC
Формат/Информация : Advanced Video Codec
Профиль формата : High@L4.0
Параметр CABAC формата : Да
Параметр ReFrames формата : 2 кадра
Параметр GOP формата : M=3, N=24
Идентификатор кодека : V_MPEG4/ISO/AVC
Битрейт : 7454 Кбит/сек
Ширина : 1920 пикселей
Высота : 1080 пикселей
Соотношение сторон : 16:9
Режим частоты кадров : Постоянный
Частота кадров : 24,000 кадра/сек
Цветовое пространство : YUV
Субдискретизация насыщенности : 4:2:0
Битовая глубина : 8 бит
Тип развёртки : Прогрессивная
Бит/(Пиксели*Кадры) : 0.150
Размер потока : 5,00 Гбайт (93%)
Язык : English
Default : Да
Forced : Нет

Аудио
Идентификатор : 2
Формат : AC-3
Формат/Информация : Audio Coding 3
Расширение режима : CM (complete main)
Параметр Endianness формата : Big
Идентификатор кодека : A_AC3
Вид битрейта : Постоянный
Битрейт : 384 Кбит/сек
Каналы : 6 каналов
Расположение каналов : Front: L C R, Side: L R, LFE
Частота : 48,0 КГц
Битовая глубина : 16 бит
Размер потока : 264 Мбайт (5%)
Заголовок : 6 ch, 384 kb/s
Язык : Russian
Default : Да
Forced : Нет

Информация о торренте
Торрент:  Зарегистрирован [31 окт 2017, 21:51] Для скачивания необходимо Зарегистрироваться!



Если Вы уже зарегистрированы, то авторизуйтесь на трекере!
Статус:  
Размер:  5.36 ГБ (5 755 139 356 байт)
Приватный:  Нет (DHT включён)
Хэш:  9536822cababa1a7ef71
ad92cfd972a5b1a1e816
Здоровье:  25%
.torrent скачан:  5
Как тут качать  Правила, основные инструкции, FAQ-и



_________________


 Профиль  
 
Показать сообщения за:  Поле сортировки  
Начать новую тему Ответить на тему  [ 1 сообщение ] 


Кто сейчас на трекере

Сейчас этот форум просматривают: нет зарегистрированных пользователей и гости: 1


Вы не можете начинать темы
Вы не можете отвечать на сообщения
Вы не можете редактировать свои сообщения
Вы не можете удалять свои сообщения
Вы не можете добавлять вложения

Найти:


Правообладателям

!ВНИМАНИЕ!
Ресурс не предоставляет электронные версии произведений, а занимается лишь коллекционированием и каталогизацией ссылок, присылаемых и публикуемых на форуме нашими читателями. Если вы являетесь правообладателем какого-либо представленного материала и не желаете чтобы ссылка на него находилась в нашем каталоге, свяжитесь с нами и мы незамедлительно удалим её. Файлы для обмена на трекере предоставлены пользователями сайта, и администрация не несёт ответственности за их содержание. Просьба не заливать файлы, защищенные авторскими правами, а также файлы нелегального содержания!
cron
Вверх страницы
Вниз страницы
ppkBB3cker v.2 © 2008-2011 @ PPK