3d-tracker.ru • Просмотр темы - Судный день в 3Д / Doomsday 3D (2008) [BDRip, Half OverUnder / Вертикальная анаморфная стереопара]

Регистрация Имя: Пароль: Запомнить Забыли пароль?



Правила форума





Начать новую тему Ответить на тему  [ 1 сообщение ] 
Статистика раздачи
Размер: 5.95 ГБ | Зарегистрирован: 01 ноя 2017, 13:10 | .torrent скачан: 8
Сиды: 0 [0 байт/сек]    Личи: 4 [0 байт/сек]
Автор Сообщение
 СообщениеДобавлено: 01 ноя 2017, 13:10 
Не в сети
Супермодератор
Аватара пользователя
Зарегистрирован: 15 апр 2014, 21:21
Торренты: 518
Раздал: 35.61 ТБ 
Скачал: 1.83 ТБ 
Ратио: 30.526
Спасибо: 2975 / 212
Сообщения: 684
Комментарии: 311
Откуда: РОССИЯ, ЦФО

Название: Судный день
Оригинальное название: Doomsday
Год выхода: 2008
Жанр: Фантастика, боевик, триллер, антиутопия, постапокалипсис

Режиссер: Нил Маршалл
В ролях: Кэрин Петерсон, Эмма Клисби, Кристин Томлинсон, Дэниэл Рид, Стефен Хьюз, Джейсон Коуп, Райан Крюгер, Натан Уитли, Сесил Картер, Джереми Кратчли, Рона Митра, Элуиз Купидо, Лили Андерсон, Боб Хоскинс, Дэвид О`Хара, Александр Сиддинг
О фильме: Великобритания, недалёкое будущее. Смертельный и совершенно неизученный вирус, названный «Жнецом» («Reaper Virus») обрушился на страну, убивая десятки и сотни тысяч жителей. Не имея возможности решить проблему, правительство решает изолировать очаг заразы от неинфицированной местности, построив вокруг территории буйства «Жнеца» стену. Проходит 30 лет, но вирус снова заявил о себе. Тогда было решено послать в заражённую область первоклассную команду спецназа для поисков возможных методов борьбы с вирусом. Ради выполнения цели и сохранения жизней ребятам придется пробиваться через настоящий оживший кошмар…

Страна: Германия, США, Великобритания, ЮАР
Студия: Crystal Sky Pictures, Scion Films Limited, Intrepid Pictures, Rogue Pictures
Продолжительность: 01:45:22
Перевод: профессиональный многоголосый

Качество: BDRip (1080p)
Видео: ~7500 Kбит/с, 1920x800, 23.976 кадр/с
Аудио: Русский AC3 / 6 ch / 384 kbps - Профессиональный многоголосый (Киномания)
Субтитры: Русские (отключаемые)
Размер: 5,95 Гб

Формат 3D: Half OverUnder / Вертикальная анаморфная стереопара
Порядок ракурсов: Левый-первый
Полное имя : E:\AV\Sudniy.denj.2008.3d.mkv
Формат : Matroska
Версия формата : Version 4 / Version 2
Размер файла : 5,95 Гбайт
Название фильма : frm Unter59
Дата кодирования : UTC 2017-11-01 06:15:41
Программа кодирования : mkvmerge v7.1.0
Библиотека кодирования : libebml v1.3.0 + libmatroska v1.4.1
Attachements : Cover.JPG
DURATION : 01:45:22.105000000

Видео
Идентификатор : 1
Формат : AVC
Формат/Информация : Advanced Video Codec
Профиль формата : High@L4.0
Параметр CABAC формата : Да
Параметр ReFrames формата : 2 кадра
Параметр GOP формата : M=3, N=24
Идентификатор кодека : V_MPEG4/ISO/AVC
Битрейт : 7535 Кбит/сек
Ширина : 1920 пикселей
Высота : 1080 пикселей
Соотношение сторон : 16:9
Режим частоты кадров : Постоянный
Частота кадров : 23,976 кадра/сек
Цветовое пространство : YUV
Субдискретизация насыщенности : 4:2:0
Битовая глубина : 8 бит
Тип развёртки : Прогрессивная
Бит/(Пиксели*Кадры) : 0.151
Размер потока : 5,55 Гбайт (93%)
Язык : English
Default : Да
Forced : Нет

Аудио
Идентификатор : 2
Формат : AC-3
Формат/Информация : Audio Coding 3
Расширение режима : CM (complete main)
Параметр Endianness формата : Big
Идентификатор кодека : A_AC3
Вид битрейта : Постоянный
Битрейт : 384 Кбит/сек
Каналы : 6 каналов
Расположение каналов : Front: L C R, Side: L R, LFE
Частота : 48,0 КГц
Битовая глубина : 16 бит
Размер потока : 289 Мбайт (5%)
Заголовок : 6 ch, 394 kb/s
Язык : Russian
Default : Да
Forced : Нет

Текст
Идентификатор : 3
Формат : UTF-8
Идентификатор кодека : S_TEXT/UTF8
Идентификатор кодека/Информация : UTF-8 Plain Text
Заголовок : Русские
Язык : Russian
Default : Да
Forced : Нет

Информация о торренте
Торрент:  Зарегистрирован [01 ноя 2017, 13:10] Для скачивания необходимо Зарегистрироваться!



Если Вы уже зарегистрированы, то авторизуйтесь на трекере!
Статус:  
Размер:  5.95 ГБ (6 385 017 195 байт)
Приватный:  Нет (DHT включён)
Хэш:  8a7211a3ae239d6bd086
dcd76495dd1a717b8a38
Здоровье:  ???%
.torrent скачан:  8
Как тут качать  Правила, основные инструкции, FAQ-и



_________________


 Профиль  
 
Показать сообщения за:  Поле сортировки  
Начать новую тему Ответить на тему  [ 1 сообщение ] 


Кто сейчас на трекере

Сейчас этот форум просматривают: Yandex [Bot] и гости: 6


Вы не можете начинать темы
Вы не можете отвечать на сообщения
Вы не можете редактировать свои сообщения
Вы не можете удалять свои сообщения
Вы не можете добавлять вложения

Найти:


Правообладателям

!ВНИМАНИЕ!
Ресурс не предоставляет электронные версии произведений, а занимается лишь коллекционированием и каталогизацией ссылок, присылаемых и публикуемых на форуме нашими читателями. Если вы являетесь правообладателем какого-либо представленного материала и не желаете чтобы ссылка на него находилась в нашем каталоге, свяжитесь с нами и мы незамедлительно удалим её. Файлы для обмена на трекере предоставлены пользователями сайта, и администрация не несёт ответственности за их содержание. Просьба не заливать файлы, защищенные авторскими правами, а также файлы нелегального содержания!
cron
Вверх страницы
Вниз страницы
ppkBB3cker v.2 © 2008-2011 @ PPK