3d-tracker.ru • Просмотр темы - Спасатели Малибу (Расширенная версия) в 3Д / Baywatch (Extended Cut) 3D (2017) [BDRip, 1080p, Half OverUnder / Вертикальная анаморфная стереопара на весь экран]

Регистрация Имя: Пароль: Запомнить Забыли пароль?



Правила форума





Начать новую тему Ответить на тему  [ Сообщений: 3 ] 
Статистика раздачи
Размер: 6.37 ГБ | Зарегистрирован: 03 ноя 2017, 10:00 | .torrent скачан: 13
Сиды: 4 [0 байт/сек]    Личи: 3 [0 байт/сек]
Автор Сообщение
 СообщениеДобавлено: 03 ноя 2017, 10:00 
Не в сети
Супермодератор
Аватара пользователя
Зарегистрирован: 15 апр 2014, 21:21
Торренты: 519
Раздал: 35.88 ТБ 
Скачал: 1.83 ТБ 
Ратио: 30.674
Спасибо: 3008 / 212
Сообщения: 685
Комментарии: 311
Откуда: РОССИЯ, ЦФО

Название: Спасатели Малибу
Оригинальное название: Baywatch
Год выпуска: 2017
Жанр: Комедия, боевик, драма

Режиссер: Сет Гордон
В ролях: Дуэйн Джонсон, Зак Эфрон, Приянка Чопра, Александра Даддарио, Келли Рорбах, Ильфенеш Хадера, Джон Басс, Яхья Абдул-Марин II, Хэннибал Бёресс, Роб Хюбель
О фильме: Группа пляжных спасателей работает на побережье Тихого океана. Они всегда находятся на своем посту и охраняют отдыхающих от несчастных случаев на воде. Главный герой, опытный спасатель Митч Бьюкеннон, и его молодой коллега Мэтт Броди случайно узнают, что их пляж находится под угрозой исчезновения. Большая нефтяная компания собирается разрушить побережье, преследуя личные интересы руководства, крепко завязанные на финансах.

Страна: США
Студия: Paramount Pictures, Flynn Picture Company, Fremantle Productions
Продолжительность: 01:54:27
Перевод: Дублированный | Лицензия BD EUR

Качество: BDRip (1080p)
Видео: AVC, 1920x1080, 23.976 fps, 7350 Kbps (0.148 bit/pixel)
Аудио : AC-3, 48.0 KHz, 6 ch, 448 Kbps, CBR (Russian)
Субтитры: Русские (форсированные-включены по умолчанию, полные)
Размер: 6,37 Гб

Формат 3D: Zoom Half OverUnder / Вертикальная анаморфная стереопара (16:9)
Порядок ракурсов: Левый-первый
Полное имя : E:\AV\Baywatch.2017.3d.mkv
Формат : Matroska
Версия формата : Version 4 / Version 2
Размер файла : 6,37 Гбайт
Название фильма : Пляжный патруль / Baywatch (2017) 3D
Дата кодирования : UTC 2017-11-02 17:46:32
Программа кодирования : mkvmerge v7.1.0 ('Good Love') 64bit
Библиотека кодирования : libebml v1.3.0 + libmatroska v1.4.1
Attachements : poster.jpg
DURATION : 01:54:26.660000000

Видео
Идентификатор : 1
Формат : AVC
Формат/Информация : Advanced Video Codec
Профиль формата : Baseline@L4.0
Параметр CABAC формата : Да
Параметр ReFrames формата : 2 кадра
Идентификатор кодека : V_MPEG4/ISO/AVC
Битрейт : 7350 Кбит/сек
Ширина : 1920 пикселей
Высота : 1080 пикселей
Соотношение сторон : 16:9
Режим частоты кадров : Постоянный
Частота кадров : 23,976 кадра/сек
Цветовое пространство : YUV
Субдискретизация насыщенности : 4:2:0
Битовая глубина : 8 бит
Тип развёртки : Прогрессивная
Бит/(Пиксели*Кадры) : 0.148
Размер потока : 5,89 Гбайт (92%)
Язык : English
Default : Да
Forced : Нет

Аудио
Идентификатор : 2
Формат : AC-3
Формат/Информация : Audio Coding 3
Расширение режима : CM (complete main)
Параметр Endianness формата : Big
Идентификатор кодека : A_AC3
Вид битрейта : Постоянный
Битрейт : 448 Кбит/сек
Каналы : 6 каналов
Расположение каналов : Front: L C R, Side: L R, LFE
Частота : 48,0 КГц
Битовая глубина : 16 бит
Размер потока : 367 Мбайт (6%)
Язык : Russian
Default : Да
Forced : Нет

Текст #1
Идентификатор : 3
Формат : UTF-8
Идентификатор кодека : S_TEXT/UTF8
Идентификатор кодека/Информация : UTF-8 Plain Text
Заголовок : forced
Язык : Russian
Default : Да
Forced : Нет

Текст #2
Идентификатор : 4
Формат : UTF-8
Идентификатор кодека : S_TEXT/UTF8
Идентификатор кодека/Информация : UTF-8 Plain Text
Заголовок : iTunes
Язык : Russian
Default : Нет
Forced : Нет

Информация о торренте
Торрент:  Зарегистрирован [03 ноя 2017, 10:00] Для скачивания необходимо Зарегистрироваться!



Если Вы уже зарегистрированы, то авторизуйтесь на трекере!
Статус:  
Размер:  6.37 ГБ (6 842 130 789 байт)
Приватный:  Нет (DHT включён)
Хэш:  53e501f47f38cede9dd5
e5b28adbc1f0a3c5affe
Здоровье:  100%
.torrent скачан:  13
Как тут качать  Правила, основные инструкции, FAQ-и



_________________


 Профиль  
 
 СообщениеДобавлено: 17 ноя 2017, 00:52 
Не в сети
заглянувший
Аватара пользователя
Зарегистрирован: 17 ноя 2017, 00:39
Торренты: 0
Раздал: 14.96 ГБ 
Скачал: 17.68 ГБ 
Ратио: 0.846
Спасибо: 0 / 4
Сообщения: 2
Комментарии: 2
Дайте раздачу ! качаю уже два дня :-|-:


 Профиль  
 
 СообщениеДобавлено: 17 ноя 2017, 09:10 
Не в сети
Супермодератор
Аватара пользователя
Зарегистрирован: 15 апр 2014, 21:21
Торренты: 519
Раздал: 35.88 ТБ 
Скачал: 1.83 ТБ 
Ратио: 30.674
Спасибо: 3008 / 212
Сообщения: 685
Комментарии: 311
Откуда: РОССИЯ, ЦФО
К сожалению - храню раздачи -неделю!
Удалил с ЖД! :-(

_________________


 Профиль  
 
Показать сообщения за:  Поле сортировки  
Начать новую тему Ответить на тему  [ Сообщений: 3 ] 


Кто сейчас на трекере

Сейчас этот форум просматривают: нет зарегистрированных пользователей и гости: 1


Вы не можете начинать темы
Вы не можете отвечать на сообщения
Вы не можете редактировать свои сообщения
Вы не можете удалять свои сообщения
Вы не можете добавлять вложения

Найти:


Правообладателям

!ВНИМАНИЕ!
Ресурс не предоставляет электронные версии произведений, а занимается лишь коллекционированием и каталогизацией ссылок, присылаемых и публикуемых на форуме нашими читателями. Если вы являетесь правообладателем какого-либо представленного материала и не желаете чтобы ссылка на него находилась в нашем каталоге, свяжитесь с нами и мы незамедлительно удалим её. Файлы для обмена на трекере предоставлены пользователями сайта, и администрация не несёт ответственности за их содержание. Просьба не заливать файлы, защищенные авторскими правами, а также файлы нелегального содержания!
cron
Вверх страницы
Вниз страницы
ppkBB3cker v.2 © 2008-2011 @ PPK