3d-tracker.ru • Просмотр темы - Костолом в 3Д / Bonejangles 3D (2017) [1080p, Zoom Half OverUnder / Вертикальная анаморфная пара на весь экран]

Регистрация Имя: Пароль: Запомнить Забыли пароль?



Правила форума





Начать новую тему Ответить на тему  [ 1 сообщение ] 
Статистика раздачи
Размер: 1.36 ГБ | Зарегистрирован: 03 ноя 2017, 19:36 | .torrent скачан: 5
Сиды: 1 [0 байт/сек]    Личи: 2 [0 байт/сек]
Автор Сообщение
 СообщениеДобавлено: 03 ноя 2017, 19:36 
Не в сети
Супермодератор
Аватара пользователя
Зарегистрирован: 15 апр 2014, 21:21
Торренты: 519
Раздал: 35.88 ТБ 
Скачал: 1.83 ТБ 
Ратио: 30.674
Спасибо: 3008 / 212
Сообщения: 685
Комментарии: 311
Откуда: РОССИЯ, ЦФО

16+

Год: 2017
Производство: США
Жанр: ужасы

Режиссер: Бретт Де Джагер
Актеры: Рэджи Бэннистер, Элисса Бри, Джулия Кавано, Wade Everett, Келли Мишек мл., Katie Walgrave, Allen Regimbal, Jamie Scott, Gordon Кристофер, Хант Лоуренс, Уэйн Керри
Описание: Во время транспортировки легендарного серийного убийцы Костолома группа полицейских застревает в городе, проклятом демоническими зомби. Единственный способ, которым они могут выжить в ночь и спасти город, - это освободить Костолома, чтобы он помог им справиться с проклятием, гораздо худшим чем он сам.
Абсурдный веселый треш ужастик, с шутками ниже пояса, в стиле План 9 / Plan 9 (2015) в котором засветился Рэджи Бэннистер (Фантазм 1-5)

Продолжительность: 01:12:17
Перевод: Любительский одноголосый [Хихикающий доктор]

Качество: (1080p)
Видео: AVC, 1920x1080, 2500 kbit/s, 23.976 fps
Аудио: 48 kHz, AC3, 2 ch, 192 kbps
Размер: 1,36 Гб

Формат 3D: Zoom Half OverUnder / Вертикальная анаморфная стереопара (16:9)
Порядок ракурсов: Левый-первый
Полное имя : E:\AV\Bonejangles.2017.3d.mkv
Формат : Matroska
Версия формата : Version 4 / Version 2
Размер файла : 1,36 Гбайт
Название фильма : Bonejangles.2017.3D
Дата кодирования : UTC 2017-11-03 13:50:22
Программа кодирования : mkvmerge v7.1.0 ('Good Love') 64bit
Библиотека кодирования : libebml v1.3.0 + libmatroska v1.4.1
DURATION : 01:12:16.556000000

Видео
Идентификатор : 1
Формат : AVC
Формат/Информация : Advanced Video Codec
Профиль формата : High@L4.0
Параметр CABAC формата : Да
Параметр ReFrames формата : 4 кадра
Идентификатор кодека : V_MPEG4/ISO/AVC
Битрейт : 2500 Кбит/сек
Ширина : 1920 пикселей
Высота : 1080 пикселей
Соотношение сторон : 16:9
Режим частоты кадров : Постоянный
Частота кадров : 23,976 кадра/сек
Цветовое пространство : YUV
Субдискретизация насыщенности : 4:2:0
Битовая глубина : 8 бит
Тип развёртки : Прогрессивная
Бит/(Пиксели*Кадры) : 0.050
Размер потока : 1,24 Гбайт (91%)
Язык : English
Default : Да
Forced : Нет

Аудио
Идентификатор : 2
Формат : AC-3
Формат/Информация : Audio Coding 3
Расширение режима : CM (complete main)
Параметр Endianness формата : Big
Идентификатор кодека : A_AC3
Вид битрейта : Постоянный
Битрейт : 192 Кбит/сек
Каналы : 2 канала
Расположение каналов : Front: L R
Частота : 48,0 КГц
Битовая глубина : 16 бит
Размер потока : 99,3 Мбайт (7%)
Заголовок : ХиХидок
Язык : Russian
Default : Да
Forced : Нет

Информация о торренте
Торрент:  Зарегистрирован [03 ноя 2017, 19:36] Для скачивания необходимо Зарегистрироваться!



Если Вы уже зарегистрированы, то авторизуйтесь на трекере!
Статус:  
Размер:  1.36 ГБ (1 461 467 020 байт)
Приватный:  Нет (DHT включён)
Хэш:  ef79b2d129447a603308
374965f2e8a4349ff884
Здоровье:  50%
.torrent скачан:  5
Как тут качать  Правила, основные инструкции, FAQ-и



_________________


 Профиль  
 
Показать сообщения за:  Поле сортировки  
Начать новую тему Ответить на тему  [ 1 сообщение ] 


Кто сейчас на трекере

Сейчас этот форум просматривают: нет зарегистрированных пользователей и гости: 1


Вы не можете начинать темы
Вы не можете отвечать на сообщения
Вы не можете редактировать свои сообщения
Вы не можете удалять свои сообщения
Вы не можете добавлять вложения

Найти:


Правообладателям

!ВНИМАНИЕ!
Ресурс не предоставляет электронные версии произведений, а занимается лишь коллекционированием и каталогизацией ссылок, присылаемых и публикуемых на форуме нашими читателями. Если вы являетесь правообладателем какого-либо представленного материала и не желаете чтобы ссылка на него находилась в нашем каталоге, свяжитесь с нами и мы незамедлительно удалим её. Файлы для обмена на трекере предоставлены пользователями сайта, и администрация не несёт ответственности за их содержание. Просьба не заливать файлы, защищенные авторскими правами, а также файлы нелегального содержания!
cron
Вверх страницы
Вниз страницы
ppkBB3cker v.2 © 2008-2011 @ PPK