3d-tracker.ru • Просмотр темы - Человек-амфибия / 3D (1961) [BDRip, 1080p, Half Side-By-Side / Горизонтальная анаморфная пара на весь экран]

Регистрация Имя: Пароль: Запомнить Забыли пароль?



Правила форума





Начать новую тему Ответить на тему  [ 1 сообщение ] 
Статистика раздачи
Размер: 1.95 ГБ | Зарегистрирован: 07 ноя 2017, 15:48 | .torrent скачан: 6
Сиды: 3 [0 байт/сек]    Личи: 3 [0 байт/сек]
Автор Сообщение
 СообщениеДобавлено: 07 ноя 2017, 15:48 
Не в сети
Супермодератор
Аватара пользователя
Зарегистрирован: 15 апр 2014, 21:21
Торренты: 519
Раздал: 35.88 ТБ 
Скачал: 1.83 ТБ 
Ратио: 30.674
Спасибо: 3008 / 212
Сообщения: 685
Комментарии: 311
Откуда: РОССИЯ, ЦФО

Название: Человек-амфибия
Год выхода: 1961
Жанр: Фантастика, фэнтези, мелодрама

Режиссер: Владимир Чеботарев, Геннадий Казанский
В ролях: Владимир Коренев, Анастасия Вертинская, Михаил Козаков, Николай Симонов, Владлен Давыдов, Анатолий Смиранин, А. Антонян, Анатолий Иванов, Валерий Кудряшов, Николай Кузьмин
О фильме: Однажды талантливый ученый доктор Сальватор спас жизнь маленькому мальчику, пересадив ему жабры акулы. С этого дня Ихтиандр, так назвал своего приемного сына ученый, мог плавать под водой, как рыба, нырять на любую глубину, но ему было тяжело подолгу находиться на суше… Годы спустя по тихому морскому городу поползли слухи о странном существе, наводящем ужас на всех рыбаков, o «морском дьяволе». В это же самое время в городе появляется молодой человек, который мало общается с людьми и прекрасно плавает. Он знакомится с дочерью бедного ныряльщика за жемчугом, красавицей Гутиэре и без памяти в нее влюбляется…

Страна: СССР
Студия: ЛЕНФИЛЬМ
Продолжительность: 01:36:20
Язык: русский

Качество: BDRip (1080p)
Видео: AVC, 1920x1080, 23.976 fps, 2500 Kbps
Аудио : AC3, 48.0 KHz, 6 ch, 384 Kbps
Размер: 1,95 Гб

Формат 3D: Half Side-By-Side / Горизонтальная анаморфная пара (16:9)
Порядок ракурсов: Левый-первый
Полное имя : E:\AV\Chelovek.amfibija.1961_3d.mkv
Формат : Matroska
Версия формата : Version 4 / Version 2
Размер файла : 1,95 Гбайт
Название фильма : from Unter59
Дата кодирования : UTC 2017-11-07 10:18:18
Программа кодирования : mkvmerge v7.1.0
Библиотека кодирования : libebml v1.3.0 + libmatroska v1.4.1
Attachements : Cover.png
DURATION : 01:36:19.975000000

Видео
Идентификатор : 1
Формат : AVC
Формат/Информация : Advanced Video Codec
Профиль формата : High@L4.0
Параметр CABAC формата : Да
Параметр ReFrames формата : 4 кадра
Идентификатор кодека : V_MPEG4/ISO/AVC
Битрейт : 2500 Кбит/сек
Ширина : 1920 пикселей
Высота : 1080 пикселей
Соотношение сторон : 16:9
Режим частоты кадров : Постоянный
Частота кадров : 23,976 кадра/сек
Цветовое пространство : YUV
Субдискретизация насыщенности : 4:2:0
Битовая глубина : 8 бит
Тип развёртки : Прогрессивная
Бит/(Пиксели*Кадры) : 0.050
Размер потока : 1,66 Гбайт (85%)
Библиотека кодирования : x264 core 139 mrdw
Язык : English
Default : Да
Forced : Нет

Аудио
Идентификатор : 2
Формат : AC-3
Формат/Информация : Audio Coding 3
Расширение режима : CM (complete main)
Параметр Endianness формата : Big
Идентификатор кодека : A_AC3
Вид битрейта : Постоянный
Битрейт : 384 Кбит/сек
Каналы : 6 каналов
Расположение каналов : Front: L C R, Side: L R, LFE
Частота : 48,0 КГц
Битовая глубина : 16 бит
Размер потока : 265 Мбайт (13%)
Язык : Russian
Default : Да
Forced : Нет

Информация о торренте
Торрент:  Зарегистрирован [07 ноя 2017, 15:48] Для скачивания необходимо Зарегистрироваться!



Если Вы уже зарегистрированы, то авторизуйтесь на трекере!
Статус:  
Размер:  1.95 ГБ (2 096 929 591 байт)
Приватный:  Нет (DHT включён)
Хэш:  ac6f8f3aa11a8641a68f
35681e95fc74d5d4fd55
Здоровье:  100%
.torrent скачан:  6
Как тут качать  Правила, основные инструкции, FAQ-и



_________________


 Профиль  
 
Показать сообщения за:  Поле сортировки  
Начать новую тему Ответить на тему  [ 1 сообщение ] 


Кто сейчас на трекере

Сейчас этот форум просматривают: нет зарегистрированных пользователей и гости: 1


Вы не можете начинать темы
Вы не можете отвечать на сообщения
Вы не можете редактировать свои сообщения
Вы не можете удалять свои сообщения
Вы не можете добавлять вложения

Найти:


Правообладателям

!ВНИМАНИЕ!
Ресурс не предоставляет электронные версии произведений, а занимается лишь коллекционированием и каталогизацией ссылок, присылаемых и публикуемых на форуме нашими читателями. Если вы являетесь правообладателем какого-либо представленного материала и не желаете чтобы ссылка на него находилась в нашем каталоге, свяжитесь с нами и мы незамедлительно удалим её. Файлы для обмена на трекере предоставлены пользователями сайта, и администрация не несёт ответственности за их содержание. Просьба не заливать файлы, защищенные авторскими правами, а также файлы нелегального содержания!
cron
Вверх страницы
Вниз страницы
ppkBB3cker v.2 © 2008-2011 @ PPK