3d-tracker.ru • Просмотр темы - Инфекция (Заражённая) / Contracted (2013) + Инфекция: Фаза 2 / Contracted: Phase II (2015) [2d->3D, 1080p, Half OverUnder / Вертикальная анаморфная пара]

Регистрация Имя: Пароль: Запомнить Забыли пароль?



Правила форума





Начать новую тему Ответить на тему  [ 1 сообщение ] 
Статистика раздачи
Размер: 2.81 ГБ | Зарегистрирован: 13 ноя 2017, 19:58 | .torrent скачан: 2
Сиды: 1 [0 байт/сек]    Личи: 3 [0 байт/сек]
Автор Сообщение
 СообщениеДобавлено: 13 ноя 2017, 19:58 
Не в сети
Супермодератор
Аватара пользователя
Зарегистрирован: 15 апр 2014, 21:21
Торренты: 518
Раздал: 35.61 ТБ 
Скачал: 1.83 ТБ 
Ратио: 30.526
Спасибо: 2975 / 212
Сообщения: 684
Комментарии: 311
Откуда: РОССИЯ, ЦФО

Два фильма соединены в один!

Название: Заражённая (Инфекция)
Оригинальное название: Contracted
Год выхода: 2013
Жанр: ужасы, триллер, драма

Режиссер: Эрик Инглэнд
В ролях: Неджарра Таунсенд, Кэролин Уильямс, Элис МакДональд, Кэти Стеджман, Мэтт Мерсер, Чарли Кунц, Саймон Баррет, Рубен Пла, Дэйв Холмс, Селия Финкельштейн
О фильме: Красавица Саманта привыкла жить, беспокоясь лишь о сиюминутных удовольствиях и не задумываясь о возможных последствиях. Однажды на вечеринке, изрядно напившись, девушка знакомится с симпатичным парнем, и вскоре они уже занимаются сексом, даже не позаботившись о своей защите . То, что поначалу кажется ей обычной половой инфекцией, оборачивается в итоге настоящим кошмаром. Спустя какое-то время Саманта понимает, что её любовник заразил её чем-то ужасным. Подхваченная ею инфекция не похожа на обычную болезнь - девушка начинает буквально гнить изнутри...
Выпущено: США
Озвучивание: Дублированное

Название: Заражённая 2 (Инфекция: Фаза 2)
Оригинальное название: Contracted: Phase II
Год выпуска: 2015
Жанр: Ужасы, триллер, драма
Выпущено: США, BoulderLight Pictures

Режиссер: Джош Форбс
В ролях: Мэтт Мерсер, Марианна Палка, Морган Питер Браун, Анна Лоре, Лорел Вэйл, Неджарра Таунсенд, Сюзанн Восс, Элис МакДональд, Кэролин Уильямс, Ной Дорси
Описание: Вторая часть фильма «Заражённая» расскажет зрителям, чем же закончится история с загадочным вирусом, который Саманта подцепила после ночи с незнакомцем. Теперь Райли предстоит в одиночку найти лекарство, остановить распространение вируса и, таким образом, спасти не только себя, но и, возможно, всё человечество.
Перевод: Дублированный

Продолжительность: 02:28:34
Размер: 2,81 Гб
Качество: BDRip (1080p)
Видео: AVC, 1920x1080, 23.976 fps, 2500 kbit/s
Аудио : AC3, 48.0 KHz, 2 ch, 192 Kbps, CBR (Russian)

Формат 3D: Half OverUnder / Вертикальная анаморфная стереопара (16:9)
Порядок ракурсов: Левый-первый
Полное имя : E:\AV\infekciya.2013-2015.3D.mkv
Формат : Matroska
Версия формата : Version 4 / Version 2
Размер файла : 2,81 Гбайт
Название фильма : infekciya.2013-2015.3d
Дата кодирования : UTC 2017-11-13 13:24:49
Программа кодирования : mkvmerge v8.3.0 ('Over the Horizon') 64bit
Библиотека кодирования : libebml v1.3.1 + libmatroska v1.4.2
DURATION : 02:28:34.184000000

Видео
Идентификатор : 1
Формат : AVC
Формат/Информация : Advanced Video Codec
Профиль формата : High@L4.0
Параметр CABAC формата : Да
Параметр ReFrames формата : 4 кадра
Идентификатор кодека : V_MPEG4/ISO/AVC
Битрейт : 2500 Кбит/сек
Ширина : 1920 пикселей
Высота : 1080 пикселей
Соотношение сторон : 16:9
Режим частоты кадров : Постоянный
Частота кадров : 23,976 кадра/сек
Цветовое пространство : YUV
Субдискретизация насыщенности : 4:2:0
Битовая глубина : 8 бит
Тип развёртки : Прогрессивная
Бит/(Пиксели*Кадры) : 0.050
Размер потока : 2,55 Гбайт (91%)
Библиотека кодирования : x264 core 139 mrdsw
Настройки программы : cabac=1 / ref=3 / analyse=0x3:0x113 / me=hex / subme=7 / psy=1 / psy_rd=1.00:0.00 / mixed_ref=1 / me_range=32 / chroma_me=1 / trellis=2 / 8x8dct=1 / cqm=0 / deadzone=21,11 / fast_pskip=1 / chroma_qp_offset=-2 / threads=6 / sliced_threads=0 / nr=0 / decimate=1 / interlaced=0 / bluray_compat=0 / constrained_intra=0 / bframes=10 / b_pyramid=2 / b_adapt=1 / b_bias=0 / direct=1 / weightb=1 / open_gop=0 / weightp=2 / keyint=250 / keyint_min=23 / scenecut=40 / intra_refresh=0 / rc_lookahead=40 / rc=abr / mbtree=1 / bitrate=2500 / ratetol=1.0 / qcomp=0.60 / qpmin=0 / qpmax=69 / qpstep=4 / ip_ratio=1.40 / aq=1:1.00
Язык : English
Default : Да
Forced : Нет

Аудио
Идентификатор : 2
Формат : AC-3
Формат/Информация : Audio Coding 3
Расширение режима : CM (complete main)
Параметр Endianness формата : Big
Идентификатор кодека : A_AC3
Вид битрейта : Постоянный
Битрейт : 192 Кбит/сек
Каналы : 2 канала
Расположение каналов : Front: L R
Частота : 48,0 КГц
Битовая глубина : 16 бит
Размер потока : 204 Мбайт (7%)
Язык : Russian
Default : Да
Forced : Нет

Информация о торренте
Торрент:  Зарегистрирован [13 ноя 2017, 19:58] Для скачивания необходимо Зарегистрироваться!



Если Вы уже зарегистрированы, то авторизуйтесь на трекере!
Статус:  
Размер:  2.81 ГБ (3 014 448 454 байт)
Приватный:  Нет (DHT включён)
Хэш:  94a5970406fd3153fc11
62565980dc6f72a36cfb
Здоровье:  33%
.torrent скачан:  2
Как тут качать  Правила, основные инструкции, FAQ-и



_________________


 Профиль  
 
Показать сообщения за:  Поле сортировки  
Начать новую тему Ответить на тему  [ 1 сообщение ] 


Кто сейчас на трекере

Сейчас этот форум просматривают: нет зарегистрированных пользователей и гости: 3


Вы не можете начинать темы
Вы не можете отвечать на сообщения
Вы не можете редактировать свои сообщения
Вы не можете удалять свои сообщения
Вы не можете добавлять вложения

Найти:


Правообладателям

!ВНИМАНИЕ!
Ресурс не предоставляет электронные версии произведений, а занимается лишь коллекционированием и каталогизацией ссылок, присылаемых и публикуемых на форуме нашими читателями. Если вы являетесь правообладателем какого-либо представленного материала и не желаете чтобы ссылка на него находилась в нашем каталоге, свяжитесь с нами и мы незамедлительно удалим её. Файлы для обмена на трекере предоставлены пользователями сайта, и администрация не несёт ответственности за их содержание. Просьба не заливать файлы, защищенные авторскими правами, а также файлы нелегального содержания!
cron
Вверх страницы
Вниз страницы
ppkBB3cker v.2 © 2008-2011 @ PPK