3d-tracker.ru • Просмотр темы - Хикок в 3Д / Hickok 3D (2017) [BDRip, 1080p, Zoom Half OverUnder / Вертикальная анаморфная стереопара на весь экран]

Регистрация Имя: Пароль: Запомнить Забыли пароль?



Правила форума





Начать новую тему Ответить на тему  [ Сообщений: 3 ] 
Статистика раздачи
Размер: 3.6 ГБ | Зарегистрирован: 15 ноя 2017, 17:17 | .torrent скачан: 15
Сиды: 5 [0 байт/сек]    Личи: 2 [0 байт/сек]
Автор Сообщение
 СообщениеДобавлено: 15 ноя 2017, 17:17 
Не в сети
Супермодератор
Аватара пользователя
Зарегистрирован: 15 апр 2014, 21:21
Торренты: 519
Раздал: 35.88 ТБ 
Скачал: 1.83 ТБ 
Ратио: 30.674
Спасибо: 3008 / 212
Сообщения: 685
Комментарии: 311
Откуда: РОССИЯ, ЦФО

Исходник: Хикок / Hickok (2017) 4K, UHD, SDR BDRip 2160p
Название: Хикок
Оригинальное название: Hickok
Год выпуска: 2017
Жанр: Вестерн
Выпущено: США, Avery Productions (II), Status Media & Entertainment, Vision Tree

Режиссер: Тимоти Вудворд мл.
В ролях: Люк Хемсворт, Трэйси Эдкинс, Крис Кристофферсон, Брюс Дерн, Кэмерон Ричардсон, Каиви Лайман, Хантер Фишер, Роберт Катрини, Бритен Саймонс, Шона Крэйг
О фильме: Главный герой приключенческого фильма «Хикок» родился и вырос на Диком Западе. Он прекрасно знает здесь каждое деревце, поэтому ему легко ориентироваться в этой местности. Он привык находиться среди жестоких преступников и не беспокоится, когда приходится с ними вступать в неравную борьбу. Благодаря упорству и труду герой из обыкновенного парня превращается в отважного стража порядка. Он бережет свой город от бандитов и не позволяет им проникать на территорию. Однако не все согласны с таким требованием. Мужчину начинают ненавидеть и некоторые преступники решаются объединиться, чтобы убрать с пути героя. В конечном итоге находится человек, способный заплатить хорошие деньги за голову Билла Хикока. Если смотреть фильм «Хикок» онлайн, то зритель увидит, как отважный герой не собирается отступать назад. Он не боится бандитов и готов объявить войну каждому, кто попытается его остановить. Мужчина стремится дать хороший отпор. Давний друг Билла переживает за товарища и хочет помочь ему противостоять врагам, но беда в том, что он уже слишком стар и не может сражаться. Тем временем к городку подбирается много преступников, мечтающих заполучить награду за голову служителя закона.

Качество: BDRip (1080p)
Видео: AVC / 1920х1080 / 23,976 fps / ~5900 кbps
Аудио: Русский / AC3 / 48 KHz / 2 ch / 192 Kbps
Продолжительность: 01:23:22
Перевод: Профессиональный многоголосый
Субтитры: Отсутствуют
Размер: 3,60 Гб

Формат 3D: Half OverUnder / Вертикальная анаморфная стереопара (16:9)
Порядок ракурсов: левый ракурс - первый
Полное имя : E:\AV\Hickok.2017.3D.1080p.mkv
Формат : Matroska
Версия формата : Version 4 / Version 2
Размер файла : 3,60 Гбайт
Название фильма : Hickok.2017.1080p.BluRay.3D_Unter59
Дата кодирования : UTC 2017-11-15 11:25:55
Программа кодирования : mkvmerge v7.1.0 ('Good Love') 64bit
Библиотека кодирования : libebml v1.3.0 + libmatroska v1.4.1
Attachements : cover.jpg
DURATION : 01:23:21.952000000

Видео
Идентификатор : 1
Формат : AVC
Формат/Информация : Advanced Video Codec
Профиль формата : High@L4.0
Параметр CABAC формата : Да
Параметр ReFrames формата : 2 кадра
Параметр GOP формата : M=3, N=24
Идентификатор кодека : V_MPEG4/ISO/AVC
Битрейт : 5874 Кбит/сек
Ширина : 1920 пикселей
Высота : 1080 пикселей
Соотношение сторон : 16:9
Режим частоты кадров : Постоянный
Частота кадров : 23,976 кадра/сек
Цветовое пространство : YUV
Субдискретизация насыщенности : 4:2:0
Битовая глубина : 8 бит
Тип развёртки : Прогрессивная
Бит/(Пиксели*Кадры) : 0.118
Размер потока : 3,42 Гбайт (95%)
Язык : English
Default : Да
Forced : Нет

Аудио
Идентификатор : 2
Формат : AC-3
Формат/Информация : Audio Coding 3
Расширение режима : CM (complete main)
Параметр Endianness формата : Big
Идентификатор кодека : A_AC3
Вид битрейта : Постоянный
Битрейт : 192 Кбит/сек
Каналы : 2 канала
Расположение каналов : Front: L R
Частота : 48,0 КГц
Битовая глубина : 16 бит
Размер потока : 114 Мбайт (3%)
Язык : Russian
Default : Да
Forced : Нет

Информация о торренте
Торрент:  Зарегистрирован [15 ноя 2017, 17:17] Для скачивания необходимо Зарегистрироваться!



Если Вы уже зарегистрированы, то авторизуйтесь на трекере!
Статус:  
Размер:  3.6 ГБ (3 870 051 342 байт)
Приватный:  Нет (DHT включён)
Хэш:  67b115c0f4e1a6bdab90
cd8f41e6ca35f40134b4
Здоровье:  100%
.torrent скачан:  15
Как тут качать  Правила, основные инструкции, FAQ-и



_________________


 Профиль  
 
 СообщениеДобавлено: 16 ноя 2017, 21:30 
Не в сети
заглянувший
Аватара пользователя
Зарегистрирован: 03 мар 2016, 15:54
Торренты: 0
Раздал: 941.41 ГБ 
Скачал: 720.24 ГБ 
Ратио: 1.307
Спасибо: 0 / 166
Сообщения: 12
Комментарии: 15
Откуда: москва
:cool_cool: :kav_boy:


 Профиль  
 
 СообщениеДобавлено: 17 ноя 2017, 09:09 
Не в сети
Супермодератор
Аватара пользователя
Зарегистрирован: 15 апр 2014, 21:21
Торренты: 519
Раздал: 35.88 ТБ 
Скачал: 1.83 ТБ 
Ратио: 30.674
Спасибо: 3008 / 212
Сообщения: 685
Комментарии: 311
Откуда: РОССИЯ, ЦФО
:ko_re:sha:

_________________


 Профиль  
 
Показать сообщения за:  Поле сортировки  
Начать новую тему Ответить на тему  [ Сообщений: 3 ] 


Кто сейчас на трекере

Сейчас этот форум просматривают: нет зарегистрированных пользователей и гости: 1


Вы не можете начинать темы
Вы не можете отвечать на сообщения
Вы не можете редактировать свои сообщения
Вы не можете удалять свои сообщения
Вы не можете добавлять вложения

Найти:


Правообладателям

!ВНИМАНИЕ!
Ресурс не предоставляет электронные версии произведений, а занимается лишь коллекционированием и каталогизацией ссылок, присылаемых и публикуемых на форуме нашими читателями. Если вы являетесь правообладателем какого-либо представленного материала и не желаете чтобы ссылка на него находилась в нашем каталоге, свяжитесь с нами и мы незамедлительно удалим её. Файлы для обмена на трекере предоставлены пользователями сайта, и администрация не несёт ответственности за их содержание. Просьба не заливать файлы, защищенные авторскими правами, а также файлы нелегального содержания!
cron
Вверх страницы
Вниз страницы
ppkBB3cker v.2 © 2008-2011 @ PPK