3d-tracker.ru • Просмотр темы - Они среди нас в 3Д / Infected 3D (2008) [1080p, Half OverUnder / Вертикальная анаморфная пара]

Регистрация Имя: Пароль: Запомнить Забыли пароль?



Правила форума





Начать новую тему Ответить на тему  [ 1 сообщение ] 
Статистика раздачи
Размер: 1.77 ГБ | Зарегистрирован: 28 ноя 2017, 09:51 | .torrent скачан: 9
Сиды: 3 [0 байт/сек]    Личи: 1 [0 байт/сек]
Автор Сообщение
 СообщениеДобавлено: 28 ноя 2017, 09:51 
Не в сети
Бывалый
Зарегистрирован: 07 июн 2014, 08:13
Торренты: 70
Раздал: 2.18 ТБ 
Скачал: 1.07 ТБ 
Ратио: 2.034
Спасибо: 294 / 650
Сообщения: 177
Комментарии: 173

2Д->3D

Жанр: Зарубежный фильм, Приключения, Триллер, Фантастика, Пришельцы
Режиссер: Адам Уайссман
В ролях: Джил Беллоуз, Максим Рой, Брюс Динсмор, Марк Камачо, Карло Местрони, Джадд Нельсон, Джесси Тодд, Изабелла Росселлини, Дэвид Шаап, Нил Напье, Гленда Браганза
О фильме: Среди людей появилось много пришельцев, их цель захватить Землю. Все руководящие посты занимают инопланетяне в людском обличии. Ведутся планомерные работы, направленные на уничтожение человечества. Мгновенная смерть ждет того, кто узнает эту тайну. В руки простого служащего попадает капсула с веществом, украденным из подпольных лабораторий. Ему становится известна страшная тайна пришельцев, его миссия сделать эту информацию достоянием широкой общественности. Служба безопасности преследует его, дышит в затылок...

Выпущено: США
Озвучивание: Проф. (многоголосый)
Продолжительность: 01:27:31

Качество: (1080p)
Видео: AVC, 1920x1080, 23.976 fps, 2500 kbit/s
[b]Аудио [/b]: AC3, 48.0 KHz, 2 ch, 384 Kbps, CBR (Russian)
Размер: 1,77 Гб

Формат 3D: Half OverUnder / Вертикальная анаморфная стереопара (16:9)
Порядок ракурсов: Левый-первый
Полное имя : E:\AV\Oni.sredi.nas.2008.3D.mkv
Формат : Matroska
Версия формата : Version 4 / Version 2
Размер файла : 1,77 Гбайт
Название фильма : Oni.sredi.nas.2008
Программа кодирования : mkvmerge v8.3.0
Библиотека кодирования : libebml v1.3.1 + libmatroska v1.4.2
DURATION : 01:27:30.813000000

Видео
Идентификатор : 1
Формат : AVC
Формат/Информация : Advanced Video Codec
Профиль формата : High@L4.0
Параметр CABAC формата : Да
Параметр ReFrames формата : 4 кадра
Идентификатор кодека : V_MPEG4/ISO/AVC
Битрейт : 2500 Кбит/сек
Ширина : 1920 пикселей
Высота : 1080 пикселей
Соотношение сторон : 16:9
Режим частоты кадров : Постоянный
Частота кадров : 23,976 кадра/сек
Цветовое пространство : YUV
Субдискретизация насыщенности : 4:2:0
Битовая глубина : 8 бит
Тип развёртки : Прогрессивная
Бит/(Пиксели*Кадры) : 0.050
Размер потока : 1,50 Гбайт (85%)
Язык : English
Default : Да
Forced : Нет

Аудио
Идентификатор : 2
Формат : AC-3
Формат/Информация : Audio Coding 3
Расширение режима : CM (complete main)
Параметр Endianness формата : Big
Идентификатор кодека : A_AC3
Вид битрейта : Постоянный
Битрейт : 384 Кбит/сек
Каналы : 2 канала
Расположение каналов : Front: L R
Частота : 48,0 КГц
Битовая глубина : 16 бит
Размер потока : 240 Мбайт (13%)
Язык : Russian
Default : Да
Forced : Нет

Информация о торренте
Торрент:  Зарегистрирован [28 ноя 2017, 09:51] Для скачивания необходимо Зарегистрироваться!



Если Вы уже зарегистрированы, то авторизуйтесь на трекере!
Статус:   изменил Soldat (28 ноя 2017, 10:14)
Размер:  1.77 ГБ (1 898 023 093 байт)
Приватный:  Нет (DHT включён)
Хэш:  1b07cb81c52896f6ae80
6cd302a1be1ee01cad1d
Здоровье:  100%
.torrent скачан:  9
Как тут качать  Правила, основные инструкции, FAQ-и




 Профиль  
 
Показать сообщения за:  Поле сортировки  
Начать новую тему Ответить на тему  [ 1 сообщение ] 


Кто сейчас на трекере

Сейчас этот форум просматривают: нет зарегистрированных пользователей и гости: 4


Вы не можете начинать темы
Вы не можете отвечать на сообщения
Вы не можете редактировать свои сообщения
Вы не можете удалять свои сообщения
Вы не можете добавлять вложения

Найти:


Правообладателям

!ВНИМАНИЕ!
Ресурс не предоставляет электронные версии произведений, а занимается лишь коллекционированием и каталогизацией ссылок, присылаемых и публикуемых на форуме нашими читателями. Если вы являетесь правообладателем какого-либо представленного материала и не желаете чтобы ссылка на него находилась в нашем каталоге, свяжитесь с нами и мы незамедлительно удалим её. Файлы для обмена на трекере предоставлены пользователями сайта, и администрация не несёт ответственности за их содержание. Просьба не заливать файлы, защищенные авторскими правами, а также файлы нелегального содержания!
cron
Вверх страницы
Вниз страницы
ppkBB3cker v.2 © 2008-2011 @ PPK