3d-tracker.ru • Просмотр темы - Кодер в 3Д / Cypher 3D (2002) [1080p, Half OverUnde / Вертикальная анаморфная пара на весь экран]

Регистрация Имя: Пароль: Запомнить Забыли пароль?



Правила форума





Начать новую тему Ответить на тему  [ 1 сообщение ] 
Статистика раздачи
Размер: 1.83 ГБ | Зарегистрирован: 04 дек 2017, 12:30 | .torrent скачан: 6
Сиды: 1 [0 байт/сек]    Личи: 1 [0 байт/сек]
Автор Сообщение
 СообщениеДобавлено: 04 дек 2017, 12:30 
Не в сети
Супермодератор
Аватара пользователя
Зарегистрирован: 15 апр 2014, 21:21
Торренты: 519
Раздал: 35.88 ТБ 
Скачал: 1.83 ТБ 
Ратио: 30.674
Спасибо: 3008 / 212
Сообщения: 685
Комментарии: 311
Откуда: РОССИЯ, ЦФО

Название: Кодер
Оригинальное название: Cypher
Год выхода: 2002
Жанр: фантастика, триллер, киберпанк

Режиссер: Винченцо Натали / Vincenzo Natali
В ролях: Джереми Нортэм, Люси Лиу, Кэри Мэтчетт, Дэвид Хьюлетт, Найджел беннет
О фильме: Морган Салливан, уставший от занудной жизни и нелюбимой жены, охотно соглашается заниматься шпионажем для могущественной корпорации «Диджикорп». Он получает новое имя и простое задание 3 с помощью секретного устройства передавать выступления конкурентов на конвенциях по всей стране. Несмотря на начавшиеся мигрени и странную боль в затылке, Морган наслаждается новой, тайной жизнью, но случайная встреча с загадочной Ритой вселяет в него страх и подозрения. По словам Риты, скучные собрания 3 всего лишь ширма для зловещих операций «Диджикорпа», превращающего своих «шпионов» в послушных марионеток, утративших свое «я». Она делает ему укол и просит на следующей конвенции никак не реагировать на то, что он там увидит…

Страна: США
Продолжительность: 01:30:23
Перевод: Профессиональный (двухголосый закадровый)

Качество: BDRip (1080p)
Видео: AVC / 23,976 fps / 1920х1080 / 2500 kbps
Аудио: Русский / AC3 / 48 KHz / 5.1 ch / 384 kbps
Размер: 1,83 Гб

Формат 3D: Half OverUnder / Вертикальная анаморфная пара (16:9)
Порядок ракурсов: левый ракурс - первый
Полное имя : F:\A&V\Koder.chopper(2002).3d.mkv
Формат : Matroska
Версия формата : Version 4 / Version 2
Размер файла : 1,83 Гбайт
Название фильма : Koder.chopper(2002)
Дата кодирования : UTC 2017-12-04 07:02:10
Программа кодирования : mkvmerge v7.1.0 ('Good Love') 64bit
Библиотека кодирования : libebml v1.3.0 + libmatroska v1.4.1
Attachements : Cover.png
DURATION : 01:30:23.168000000

Видео
Идентификатор : 1
Формат : AVC
Формат/Информация : Advanced Video Codec
Профиль формата : High@L4.0
Параметр CABAC формата : Да
Параметр ReFrames формата : 4 кадра
Идентификатор кодека : V_MPEG4/ISO/AVC
Битрейт : 2500 Кбит/сек
Ширина : 1920 пикселей
Высота : 1080 пикселей
Соотношение сторон : 16:9
Режим частоты кадров : Постоянный
Частота кадров : 23,976 кадра/сек
Цветовое пространство : YUV
Субдискретизация насыщенности : 4:2:0
Битовая глубина : 8 бит
Тип развёртки : Прогрессивная
Бит/(Пиксели*Кадры) : 0.050
Размер потока : 1,55 Гбайт (85%)
Язык : English
Default : Да
Forced : Нет

Аудио
Идентификатор : 2
Формат : AC-3
Формат/Информация : Audio Coding 3
Расширение режима : CM (complete main)
Параметр Endianness формата : Big
Идентификатор кодека : A_AC3
Вид битрейта : Постоянный
Битрейт : 384 Кбит/сек
Каналы : 6 каналов
Расположение каналов : Front: L C R, Side: L R, LFE
Частота : 48,0 КГц
Битовая глубина : 16 бит
Размер потока : 248 Мбайт (13%)
Язык : Russian
Default : Да
Forced : Нет

Информация о торренте
Торрент:  Зарегистрирован [04 дек 2017, 12:30] Для скачивания необходимо Зарегистрироваться!



Если Вы уже зарегистрированы, то авторизуйтесь на трекере!
Статус:  
Размер:  1.83 ГБ (1 963 408 542 байт)
Приватный:  Нет (DHT включён)
Хэш:  9b7588a7dbebedc6fe39
3d48923d2d6d3b29743b
Здоровье:  100%
.torrent скачан:  6
Как тут качать  Правила, основные инструкции, FAQ-и



_________________


 Профиль  
 
Показать сообщения за:  Поле сортировки  
Начать новую тему Ответить на тему  [ 1 сообщение ] 


Кто сейчас на трекере

Сейчас этот форум просматривают: нет зарегистрированных пользователей и гости: 1


Вы не можете начинать темы
Вы не можете отвечать на сообщения
Вы не можете редактировать свои сообщения
Вы не можете удалять свои сообщения
Вы не можете добавлять вложения

Найти:


Правообладателям

!ВНИМАНИЕ!
Ресурс не предоставляет электронные версии произведений, а занимается лишь коллекционированием и каталогизацией ссылок, присылаемых и публикуемых на форуме нашими читателями. Если вы являетесь правообладателем какого-либо представленного материала и не желаете чтобы ссылка на него находилась в нашем каталоге, свяжитесь с нами и мы незамедлительно удалим её. Файлы для обмена на трекере предоставлены пользователями сайта, и администрация не несёт ответственности за их содержание. Просьба не заливать файлы, защищенные авторскими правами, а также файлы нелегального содержания!
cron
Вверх страницы
Вниз страницы
ppkBB3cker v.2 © 2008-2011 @ PPK