3d-tracker.ru • Просмотр темы - Ужас Амитивилля: Пробуждение в 3Д / Amityville: The Awakening 3D (2017) [BDRip, 1080p, Half OverUnder / Вертикальная анаморфная пара на весь экран]

Регистрация Имя: Пароль: Запомнить Забыли пароль?



Правила форума





Начать новую тему Ответить на тему  [ 1 сообщение ] 
Статистика раздачи
Размер: 3.63 ГБ | Зарегистрирован: 11 дек 2017, 08:13 | .torrent скачан: 6
Сиды: 3 [0 байт/сек]    Личи: 1 [0 байт/сек]
Автор Сообщение
 СообщениеДобавлено: 11 дек 2017, 08:13 
Не в сети
Супермодератор
Аватара пользователя
Зарегистрирован: 15 апр 2014, 21:21
Торренты: 518
Раздал: 35.61 ТБ 
Скачал: 1.83 ТБ 
Ратио: 30.526
Спасибо: 2975 / 212
Сообщения: 684
Комментарии: 311
Откуда: РОССИЯ, ЦФО

Название: Ужас Амитивилля: Пробуждение
Оригинальное название: Amityville: The Awakening
Год выпуска: 2017
Жанр: Ужасы, триллер

Режиссер: Франк Халфун
В ролях: Белла Торн, Кэмерон Монахэн, Дженнифер Джейсон Ли, Маккенна Грэйс, Дженнифер Моррисон, Томас Манн, Кертвуд Смит, Тейлор Спрейтлер, Ава Сантана, Хантер Голигоски
О фильме: Мать-одиночка переезжает с тремя детьми в загадочный дом, даже не подозревая о кровавом прошлом их нового жилища. У каждого дома есть история. У этого — страшная тайна.

Страна: США
Студия: Blumhouse Productions, Dimension Films, Miramax, Panic Ventures
Продолжительность: 01:21:58
Перевод: Дублированный | iTunes

Качество: BDRip | BDRemux 1080p |
Видео: AVC / 23,976 fps / 1920х1080 / 5829 kbps
Аудио: Русский / AC3 / 48 KHz / 5.1 ch / 384 kbps (iTunes)
Размер: 3,63 Гб

Формат 3D: Half OverUnder / Вертикальная анаморфная пара (16:9)
Порядок ракурсов: левый ракурс - первый
Полное имя : E:\AV\Amityville.The.Awakening.2017.3D.mkv
Формат : Matroska
Версия формата : Version 4 / Version 2
Размер файла : 3,63 Гбайт
Дата кодирования : UTC 2017-12-10 18:18:34
Программа кодирования : mkvmerge v7.1.0 ('Good Love') 64bit
Библиотека кодирования : libebml v1.3.0 + libmatroska v1.4.1
Attachements : Cover.JPG
DURATION : 01:21:58.622000000

Видео
Идентификатор : 1
Формат : AVC
Формат/Информация : Advanced Video Codec
Профиль формата : High@L4.0
Параметр CABAC формата : Да
Параметр ReFrames формата : 5 кадров
Идентификатор кодека : V_MPEG4/ISO/AVC
Битрейт : 5829 Кбит/сек
Ширина : 1920 пикселей
Высота : 1080 пикселей
Соотношение сторон : 16:9
Режим частоты кадров : Постоянный
Частота кадров : 23,976 кадра/сек
Цветовое пространство : YUV
Субдискретизация насыщенности : 4:2:0
Битовая глубина : 8 бит
Тип развёртки : Прогрессивная
Бит/(Пиксели*Кадры) : 0.117
Размер потока : 3,34 Гбайт (92%)
Язык : English
Default : Да
Forced : Нет

Аудио
Идентификатор : 2
Формат : AC-3
Формат/Информация : Audio Coding 3
Расширение режима : CM (complete main)
Параметр Endianness формата : Big
Идентификатор кодека : A_AC3
Вид битрейта : Постоянный
Битрейт : 384 Кбит/сек
Каналы : 6 каналов
Расположение каналов : Front: L C R, Side: L R, LFE
Частота : 48,0 КГц
Битовая глубина : 16 бит
Размер потока : 225 Мбайт (6%)
Язык : Russian
Default : Да
Forced : Нет

Информация о торренте
Торрент:  Зарегистрирован [11 дек 2017, 08:13] Для скачивания необходимо Зарегистрироваться!



Если Вы уже зарегистрированы, то авторизуйтесь на трекере!
Статус:  
Размер:  3.63 ГБ (3 897 313 785 байт)
Приватный:  Нет (DHT включён)
Хэш:  9b1d10bea8fc24e68ee3
3108d579fd5bcbd2f73f
Здоровье:  100%
.torrent скачан:  6
Как тут качать  Правила, основные инструкции, FAQ-и



_________________


 Профиль  
 
Показать сообщения за:  Поле сортировки  
Начать новую тему Ответить на тему  [ 1 сообщение ] 


Кто сейчас на трекере

Сейчас этот форум просматривают: нет зарегистрированных пользователей и гости: 3


Вы не можете начинать темы
Вы не можете отвечать на сообщения
Вы не можете редактировать свои сообщения
Вы не можете удалять свои сообщения
Вы не можете добавлять вложения

Найти:


Правообладателям

!ВНИМАНИЕ!
Ресурс не предоставляет электронные версии произведений, а занимается лишь коллекционированием и каталогизацией ссылок, присылаемых и публикуемых на форуме нашими читателями. Если вы являетесь правообладателем какого-либо представленного материала и не желаете чтобы ссылка на него находилась в нашем каталоге, свяжитесь с нами и мы незамедлительно удалим её. Файлы для обмена на трекере предоставлены пользователями сайта, и администрация не несёт ответственности за их содержание. Просьба не заливать файлы, защищенные авторскими правами, а также файлы нелегального содержания!
cron
Вверх страницы
Вниз страницы
ppkBB3cker v.2 © 2008-2011 @ PPK