3d-tracker.ru • Просмотр темы - Последний охотник на ведьм в 3Д / The Last Witch Hunter 3D (2015) [BDRip, Half Side-by-Side / Горизонтальная анаморфная пара]

Регистрация Имя: Пароль: Запомнить Забыли пароль?



Правила форума





Начать новую тему Ответить на тему  [ 1 сообщение ] 
Статистика раздачи
Размер: 4.73 ГБ | Зарегистрирован: 17 дек 2017, 09:38 | .torrent скачан: 13
Сиды: 3 [0 байт/сек]    Личи: 0 [0 байт/сек]
Автор Сообщение
 СообщениеДобавлено: 17 дек 2017, 09:38 
Не в сети
Бывалый
Зарегистрирован: 07 июн 2014, 08:13
Торренты: 70
Раздал: 2.18 ТБ 
Скачал: 1.07 ТБ 
Ратио: 2.034
Спасибо: 294 / 650
Сообщения: 177
Комментарии: 173

Название: Последний охотник на ведьм
Оригинальное название: The Last Witch Hunter
Год выхода: 2015
Жанр: фэнтези, боевик, приключения

Режиссер: Брек Эйснер
В ролях: Вин Дизель, Роуз Лесли, Элайджа Вуд, Оулавюр Дарри Оулафссон, Рина Оуэн, Юли Энгельбрехт, Майкл Кейн, Джозеф Гилган, Исаак Де Банколе, Майкл Халсли
О фильме: Современный мир скрывает множество секретов, но самым удивительным из них является то, что ведьмы до сих пор живут среди нас. Это злобные сверхъестественные существа, чья цель — наслать на мир смертоносную чуму. Армии охотников на ведьм сражались с ними на протяжении многих веков.
В наши дни остался всего лишь один охотник на ведьм, Колдер, которому однажды удалось убить всемогущую королеву ведьм. Но Колдер еще не знает, что королева воскресла и жаждет отомстить своему убийце…

Страна: США, Китай, Канада
Студия: Atmosphere Entertainment MM, Summit Entertainment
Продолжительность: 01:35:44

Качество: BDRip (1080p)
Видео: AVC, 5842 кбит/сек, 23.976 fps, 1920x800
Аудио: Русский AC3, 6 ch, 384 Кбит/с
Размер: 4,73 Гб
Субтитры: Русские(полные)-отключаемые

Формат 3D: Half SideBySide / Горизонтальная анаморфная пара
Порядок ракурсов: Левый-первый
Формат : Matroska
Версия формата : Version 4 / Version 2
Размер файла : 4,73 Гбайт
Общий поток : 6353 Кбит/сек
Дата кодирования : UTC 2017-12-16 13:17:09
Программа кодирования : mkvmerge v7.1.0
Библиотека кодирования : libebml v1.3.0 + libmatroska v1.4.1
DURATION : 01:35:43.730000000
Attachment : Yes

Видео
Идентификатор : 1
Формат : AVC
Формат/Информация : Advanced Video Codec
Профиль формата : High@L4.0
Параметр CABAC формата : Да
Параметр ReFrames формата : 2 кадра
Идентификатор кодека : V_MPEG4/ISO/AVC
Битрейт : 5842 Кбит/сек
Ширина : 1920 пикселей
Высота : 1080 пикселей
Соотношение сторон : 16:9
Режим частоты кадров : Постоянный
Частота кадров : 23,976 кадра/сек
Цветовое пространство : YUV
Субдискретизация насыщенности : 4:2:0
Битовая глубина : 8 бит
Тип развёртки : Прогрессивная
Бит/(Пиксели*Кадры) : 0.118
Размер потока : 4,35 Гбайт (92%)
Язык : English
Default : Да
Forced : Нет

Аудио
Идентификатор : 2
Формат : AC-3
Формат/Информация : Audio Coding 3
Расширение режима : CM (complete main)
Параметр Endianness формата : Big
Идентификатор кодека : A_AC3
Вид битрейта : Постоянный
Битрейт : 384 Кбит/сек
Каналы : 6 каналов
Расположение каналов : Front: L C R, Side: L R, LFE
Частота : 48,0 КГц
Битовая глубина : 16 бит
Размер потока : 293 Мбайт (6%)
Язык : Russian
Default : Да
Forced : Нет

Текст
Идентификатор : 3
Формат : UTF-8
Идентификатор кодека : S_TEXT/UTF8
Идентификатор кодека/Информация : UTF-8 Plain Text
Язык : Russian
Default : Да
Forced : Нет

Информация о торренте
Торрент:  Зарегистрирован [17 дек 2017, 09:38] Для скачивания необходимо Зарегистрироваться!



Если Вы уже зарегистрированы, то авторизуйтесь на трекере!
Статус:   изменил Soldat (17 дек 2017, 10:37)
Размер:  4.73 ГБ (5 077 721 238 байт)
Приватный:  Нет (DHT включён)
Хэш:  95448e1e32e98abc34e8
8f90724fa6125f8ae013
Здоровье:  100%
.torrent скачан:  13
Как тут качать  Правила, основные инструкции, FAQ-и




 Профиль  
 
Показать сообщения за:  Поле сортировки  
Начать новую тему Ответить на тему  [ 1 сообщение ] 


Кто сейчас на трекере

Сейчас этот форум просматривают: нет зарегистрированных пользователей и гости: 4


Вы не можете начинать темы
Вы не можете отвечать на сообщения
Вы не можете редактировать свои сообщения
Вы не можете удалять свои сообщения
Вы не можете добавлять вложения

Найти:


Правообладателям

!ВНИМАНИЕ!
Ресурс не предоставляет электронные версии произведений, а занимается лишь коллекционированием и каталогизацией ссылок, присылаемых и публикуемых на форуме нашими читателями. Если вы являетесь правообладателем какого-либо представленного материала и не желаете чтобы ссылка на него находилась в нашем каталоге, свяжитесь с нами и мы незамедлительно удалим её. Файлы для обмена на трекере предоставлены пользователями сайта, и администрация не несёт ответственности за их содержание. Просьба не заливать файлы, защищенные авторскими правами, а также файлы нелегального содержания!
cron
Вверх страницы
Вниз страницы
ppkBB3cker v.2 © 2008-2011 @ PPK