3d-tracker.ru • Просмотр темы - Техасская резня бензопилой: Кожаное лицо / Leatherface (2017) [2d->3D, 1080p, Zoom Half OverUnder / Вертикальная анаморфная пара на весь экран]

Регистрация Имя: Пароль: Запомнить Забыли пароль?



Правила форума





Начать новую тему Ответить на тему  [ 1 сообщение ] 
Статистика раздачи
Размер: 2.3 ГБ | Зарегистрирован: 18 дек 2017, 13:51 | .torrent скачан: 3
Сиды: 1 [0 байт/сек]    Личи: 0 [0 байт/сек]
Автор Сообщение
 СообщениеДобавлено: 18 дек 2017, 13:51 
Не в сети
Супермодератор
Аватара пользователя
Зарегистрирован: 15 апр 2014, 21:21
Торренты: 519
Раздал: 35.89 ТБ 
Скачал: 1.83 ТБ 
Ратио: 30.676
Спасибо: 3008 / 212
Сообщения: 685
Комментарии: 311
Откуда: РОССИЯ, ЦФО

Название: Техасская резня бензопилой: Кожаное лицо
Оригинальное название: Leatherface
Год выхода: 2017
Жанр: Ужасы, триллер

Режиссер: Александр Бустильо, Жюльен Мори
В ролях: Стивен Дорфф, Ванесса Грасс, Сэм Страйк, Лили Тейлор, Финн Джонс, Николь Эндрюс, Джеймс Блур, Сэм Коулман, Симона Левин, Кристофер Адамсон, Джулиан Костов, Джессика Мэдсен, Борис Кабакчиев, Йен Фишер, Велизар Пеев, Деян Ангелов, Лорина Камбурова, Нэйтан Купер
О фильме: При побеге из лечебницы для душевнобольных, четверо подростков похищают молодую медсестру. В погоню за ними пускается отряд полицейских во главе с техасским рейнджером Хэлом Хартменом, мстительным и беспощадным. Один из беглецов встает на полный трагедий и ужасов путь, который превратит его в маньяка — легенду по имени Кожаное лицо.

Страна: США
Студия: Campbell Grobman Films, LF2 Productions, Lionsgate, Mainline Pictures Inc., Millennium Films
Продолжительность: 01:24:39
Перевод: Дублированный | iTunes

Качество: BDRip (1080p)
Видео: AVC / 23,976 fps / 1920х1080 / 3431 kbps
Аудио: Русский / AC3 / 48 KHz / 5.1 ch / 384 kbps (iTunes)
Размер: 2,30 Гб

Формат 3D: Half OverUnder / Вертикальная анаморфная пара (16:9)
Порядок ракурсов: левый ракурс - первый
Формат : Matroska
Версия формата : Version 4 / Version 2
Размер файла : 2,30 Гбайт
Программа кодирования : mkvmerge v7.1.0
Библиотека кодирования : libebml v1.3.0 + libmatroska v1.4.1
Attachements : Cover.JPG
DURATION : 01:24:39.391000000

Видео
Идентификатор : 1
Формат : AVC
Формат/Информация : Advanced Video Codec
Профиль формата : High@L4.0
Параметр CABAC формата : Да
Параметр ReFrames формата : 5 кадров
Параметр GOP формата : M=1, N=12
Идентификатор кодека : V_MPEG4/ISO/AVC
Битрейт : 3431 Кбит/сек
Ширина : 1920 пикселей
Высота : 1080 пикселей
Соотношение сторон : 16:9
Режим частоты кадров : Постоянный
Частота кадров : 23,976 кадра/сек
Цветовое пространство : YUV
Субдискретизация насыщенности : 4:2:0
Битовая глубина : 8 бит
Тип развёртки : Прогрессивная
Бит/(Пиксели*Кадры) : 0.089
Размер потока : 2,03 Гбайт (88%)
Язык : English
Default : Да
Forced : Нет

Аудио
Идентификатор : 2
Формат : AC-3
Формат/Информация : Audio Coding 3
Расширение режима : CM (complete main)
Параметр Endianness формата : Big
Идентификатор кодека : A_AC3
Вид битрейта : Постоянный
Битрейт : 384 Кбит/сек
Каналы : 6 каналов
Расположение каналов : Front: L C R, Side: L R, LFE
Частота : 48,0 КГц
Битовая глубина : 16 бит
Размер потока : 233 Мбайт (10%)
Язык : Russian
Default : Да
Forced : Нет

Информация о торренте
Торрент:  Зарегистрирован [18 дек 2017, 13:51] Для скачивания необходимо Зарегистрироваться!



Если Вы уже зарегистрированы, то авторизуйтесь на трекере!
Статус:  
Размер:  2.3 ГБ (2 471 141 089 байт)
Приватный:  Нет (DHT включён)
Хэш:  f440798ba255b5c243f9
596070bc2ced467d0f5f
Здоровье:  100%
.torrent скачан:  3
Как тут качать  Правила, основные инструкции, FAQ-и



_________________


 Профиль  
 
Показать сообщения за:  Поле сортировки  
Начать новую тему Ответить на тему  [ 1 сообщение ] 


Кто сейчас на трекере

Сейчас этот форум просматривают: нет зарегистрированных пользователей и гости: 2


Вы не можете начинать темы
Вы не можете отвечать на сообщения
Вы не можете редактировать свои сообщения
Вы не можете удалять свои сообщения
Вы не можете добавлять вложения

Найти:


Правообладателям

!ВНИМАНИЕ!
Ресурс не предоставляет электронные версии произведений, а занимается лишь коллекционированием и каталогизацией ссылок, присылаемых и публикуемых на форуме нашими читателями. Если вы являетесь правообладателем какого-либо представленного материала и не желаете чтобы ссылка на него находилась в нашем каталоге, свяжитесь с нами и мы незамедлительно удалим её. Файлы для обмена на трекере предоставлены пользователями сайта, и администрация не несёт ответственности за их содержание. Просьба не заливать файлы, защищенные авторскими правами, а также файлы нелегального содержания!
cron
Вверх страницы
Вниз страницы
ppkBB3cker v.2 © 2008-2011 @ PPK