3d-tracker.ru • Просмотр темы - Салон Китти в 3Д / Salon Kitty 3D (1976) [BDRip, 1080p, Half SideBySide / Горизонтальная анаморфная стереопара на весь экран]

Регистрация Имя: Пароль: Запомнить Забыли пароль?



Правила форума





Начать новую тему Ответить на тему  [ 1 сообщение ] 
Статистика раздачи
Размер: 5.63 ГБ | Зарегистрирован: 23 дек 2017, 09:38 | .torrent скачан: 18
Сиды: 3 [0 байт/сек]    Личи: 2 [0 байт/сек]
Автор Сообщение
 СообщениеДобавлено: 23 дек 2017, 09:38 
Не в сети
Супермодератор
Аватара пользователя
Зарегистрирован: 15 апр 2014, 21:21
Торренты: 519
Раздал: 35.89 ТБ 
Скачал: 1.83 ТБ 
Ратио: 30.676
Спасибо: 3008 / 212
Сообщения: 685
Комментарии: 311
Откуда: РОССИЯ, ЦФО

18+


Название: Салон Китти
Оригинальное название: Salon Kitty / Madam Kitty
Год выхода: 1976
Жанр: Драма, эротика
Режиссер: Тинто Брасс / Tinto Brass
В ролях: Хельмут Бергер, Ингрид Тулин, Тереза Энн Савой, Беким Фехмию, Джон Айрленд, Тина Омон, Джон Стайнер, Стефано Сатта Флорес, Сара Сперати, Мария Мичи

О фильме: Танцовщица Китти живет в нацистской Германии и содержит салон, куда приходят «расслабляться» высшие чины рейха. Их обслуживают девушки только чистейшей арийской крови. Они проходят строжайший отбор и обязаны повиноваться любым приказам высокопоставленного офицера СС Валленберга.
Повсюду в салоне расставлены потайные микрофоны и записывающие устройства, а девушкам приказано доносить о любом клиенте, кто хоть немного отклоняется от партийной линии.
Все идет хорошо, но лишь до тех пор, пока одна из девушек, любовница самого Валленберга Маргерита, не влюбляется в офицера люфтваффе, разочаровавшегося в идеях национал-социализма…

Выпущено: Франция, Италия, Германия (ФРГ) / Coralta Cinematografica, Cinema Seven Film, Les Productions Fox Europa
Продолжительность: 02:09:56
Перевод: Профессиональный (двухголосый)

Качество: BDRip (1080p) by Unter59
Видео: AVC, 5890 кбит/сек, 23.976 fps, 1920x1080
Аудио: Русский AC3, 2 ch, 192 Кбит/с
Размер: 5,63 Гб

Формат 3D: Half SideBySide / Горизонтальная анаморфная пара (16:9 "без двоения")
Порядок ракурсов: Левый-первый
Полное имя : E:\AV\Salon.Kitty.1976.3D.HSBS.1080p(Unter59).mkv
Формат : Matroska
Версия формата : Version 4 / Version 2
Размер файла : 5,63 Гбайт
Название фильма : from Unter59 Салон Китти в 3Д / 3D (1976) 1080p, Half SBS на весь экран 18+
Дата кодирования : UTC 2017-12-23 04:16:34
Программа кодирования : mkvmerge v7.1.0 ('Good Love') 64bit built on Jul 27 2014 13:06:55
Библиотека кодирования : libebml v1.3.0 + libmatroska v1.4.1
Attachements : Cover.JPG
DURATION : 02:09:56.160000000

Видео
Идентификатор : 1
Формат : AVC
Формат/Информация : Advanced Video Codec
Профиль формата : High@L4.0
Параметр CABAC формата : Да
Параметр ReFrames формата : 2 кадра
Идентификатор кодека : V_MPEG4/ISO/AVC
Продолжительность : 2 ч. 9 м.
Вид битрейта : Переменный
Битрейт : 5885 Кбит/сек
Ширина : 1920 пикселей
Высота : 1080 пикселей
Соотношение сторон : 16:9
Режим частоты кадров : Постоянный
Частота кадров : 23,976 кадра/сек
Цветовое пространство : YUV
Субдискретизация насыщенности : 4:2:0
Битовая глубина : 8 бит
Тип развёртки : Прогрессивная
Бит/(Пиксели*Кадры) : 0.118
Размер потока : 5,34 Гбайт (95%)
Заголовок : 1080p, HSBS
Язык : English
Default : Да
Forced : Нет

Аудио
Идентификатор : 2
Формат : AC-3
Формат/Информация : Audio Coding 3
Расширение режима : CM (complete main)
Параметр Endianness формата : Big
Идентификатор кодека : A_AC3
Вид битрейта : Постоянный
Битрейт : 192 Кбит/сек
Каналы : 2 канала
Расположение каналов : Front: L R
Частота : 48,0 КГц
Битовая глубина : 16 бит
Размер потока : 178 Мбайт (3%)
Язык : Russian
Default : Да
Forced : Нет

Информация о торренте
Торрент:  Зарегистрирован [23 дек 2017, 09:38] Для скачивания необходимо Зарегистрироваться!



Если Вы уже зарегистрированы, то авторизуйтесь на трекере!
Статус:  
Размер:  5.63 ГБ (6 042 456 111 байт)
Приватный:  Нет (DHT включён)
Хэш:  18a326a5103cf926ac19
e747c21d122b5fd542fe
Здоровье:  100%
.torrent скачан:  18
Как тут качать  Правила, основные инструкции, FAQ-и



_________________


 Профиль  
 
Показать сообщения за:  Поле сортировки  
Начать новую тему Ответить на тему  [ 1 сообщение ] 


Кто сейчас на трекере

Сейчас этот форум просматривают: нет зарегистрированных пользователей и гости: 3


Вы не можете начинать темы
Вы не можете отвечать на сообщения
Вы не можете редактировать свои сообщения
Вы не можете удалять свои сообщения
Вы не можете добавлять вложения

Найти:


Правообладателям

!ВНИМАНИЕ!
Ресурс не предоставляет электронные версии произведений, а занимается лишь коллекционированием и каталогизацией ссылок, присылаемых и публикуемых на форуме нашими читателями. Если вы являетесь правообладателем какого-либо представленного материала и не желаете чтобы ссылка на него находилась в нашем каталоге, свяжитесь с нами и мы незамедлительно удалим её. Файлы для обмена на трекере предоставлены пользователями сайта, и администрация не несёт ответственности за их содержание. Просьба не заливать файлы, защищенные авторскими правами, а также файлы нелегального содержания!
cron
Вверх страницы
Вниз страницы
ppkBB3cker v.2 © 2008-2011 @ PPK