3d-tracker.ru • Просмотр темы - Хранители в 3Д / Watchmen 3D (2009) [BDRip, 1080p, Zoom Half OverUnder / Вертикальная анаморфная стереопара на весь экран]

Регистрация Имя: Пароль: Запомнить Забыли пароль?



Правила форума





Начать новую тему Ответить на тему  [ Сообщений: 3 ] 
Статистика раздачи
Размер: 6.37 ГБ | Зарегистрирован: 23 дек 2017, 10:25 | .torrent скачан: 7
Сиды: 1 [0 байт/сек]    Личи: 0 [0 байт/сек]
Автор Сообщение
 СообщениеДобавлено: 23 дек 2017, 10:25 
Не в сети
Супермодератор
Аватара пользователя
Зарегистрирован: 15 апр 2014, 21:21
Торренты: 518
Раздал: 35.61 ТБ 
Скачал: 1.83 ТБ 
Ратио: 30.526
Спасибо: 2975 / 212
Сообщения: 684
Комментарии: 311
Откуда: РОССИЯ, ЦФО

Год выпуска: 2009
Страна: США
Жанр: фантастика, боевик, детектив
Продолжительность: 02:35:21
Перевод: Профессиональный (полное дублирование)
Субтитры: русские (форсированные) - вшитые

Режиссер: Зак Снайдер / Zack Snyder
В ролях: Малин Акерман,Билли Крудап, Мэттью Гуд, Джеки Эрл Хейли, Джеффри Дин Морган, Патрик Уилсон, Карла Гуджино, Мэтт Фрюэр, Стивен МакХэтти, Лаура Меннелл
Описание: Действие картины разворачивается в параллельной реальности, в Америке 1985 года. В этом мире супергерои стали частью повседневной жизни общества, а Часы Судного Дня, застыв в пяти минутах от полуночи, отсчитывают время до столкновения ведущих мировых держав. После убийства одного из своих прежних коллег Роршах — супергерой, никогда не снимающий маски, — полон решимости свершить суд Линча.Он начинает расследование заговора, призванного уничтожить или дискредитировать всех супергероев прошлого и настоящего. Он собирает своих соратников — отставной легион борцов с преступностью, но лишь один из них обладает подлинной силой. Постепенно Роршах осознает пугающий масштаб заговора, связанного с общим прошлым героев и сулящего катастрофические последствия в будущем. Они хранят наш покой, но кто охранит нас от Хранителей?

Качество: BDRip (1080p) by Unter59
Видео: AVC / 23,976 fps / 1920х1080 / 5370 kbps
Аудио: Русский / AC3 / 48 KHz / 5.1 ch / 384 kbps
Размер: 6,37 Гб

Формат 3D: Half OverUnder / Вертикальная анаморфная пара (16:9) ["без двоения+"]
Порядок ракурсов: левый ракурс - первый
Полное имя : E:\AV\Watchmen.2009.3D.1080p.ZHOU(Unter59).mkv
Формат : Matroska
Версия формата : Version 4 / Version 2
Размер файла : 6,37 Гбайт
Название фильма : Хранители в 3Д / 3D (2009) 1080p, Zoom HalfOU_from Unter59
Дата кодирования : UTC 2017-12-23 04:09:10
Программа кодирования : mkvmerge v8.3.0 ('Over the Horizon') 64bit
Библиотека кодирования : libebml v1.3.1 + libmatroska v1.4.2
Attachment : Yes
DURATION : 02:35:20.526000000

Видео
Идентификатор : 1
Формат : AVC
Формат/Информация : Advanced Video Codec
Профиль формата : High@L4.0
Параметр CABAC формата : Да
Параметр ReFrames формата : 5 кадров
Идентификатор кодека : V_MPEG4/ISO/AVC
Битрейт : 5366 Кбит/сек
Ширина : 1920 пикселей
Высота : 1080 пикселей
Соотношение сторон : 16:9
Режим частоты кадров : Постоянный
Частота кадров : 23,962 кадра/сек
Цветовое пространство : YUV
Субдискретизация насыщенности : 4:2:0
Битовая глубина : 8 бит
Тип развёртки : Прогрессивная
Бит/(Пиксели*Кадры) : 0.108
Размер потока : 5,82 Гбайт (91%)
Заголовок : 1080p, Zoom HOU (550 кадров ручного кодирования в проге 3DCombine)
Язык : English
Default : Да
Forced : Нет

Аудио
Идентификатор : 2
Формат : AC-3
Формат/Информация : Audio Coding 3
Расширение режима : CM (complete main)
Параметр Endianness формата : Big
Идентификатор кодека : A_AC3
Вид битрейта : Постоянный
Битрейт : 384 Кбит/сек
Каналы : 6 каналов
Расположение каналов : Front: L C R, Side: L R, LFE
Частота : 48,0 КГц
Битовая глубина : 16 бит
Размер потока : 427 Мбайт (7%)
Заголовок : 5.1 ch, 384 kb/s - Dub
Язык : Russian
Default : Да
Forced : Нет


Информация о торренте
Торрент:  Зарегистрирован [23 дек 2017, 10:25] Для скачивания необходимо Зарегистрироваться!



Если Вы уже зарегистрированы, то авторизуйтесь на трекере!
Статус:  
Размер:  6.37 ГБ (6 834 905 239 байт)
Приватный:  Нет (DHT включён)
Хэш:  fdd8a0fb7ce14ea4a1df
e4299766d105922f29f4
Здоровье:  100%
.torrent скачан:  7
Как тут качать  Правила, основные инструкции, FAQ-и



_________________


 Профиль  
 
 СообщениеДобавлено: 23 дек 2017, 13:45 
Не в сети
заглянувший
Зарегистрирован: 27 мар 2014, 17:45
Торренты: 0
Раздал: 227.97 ГБ 
Скачал: 516.39 ГБ 
Ратио: 0.441
Спасибо: 0 / 1
Сообщения: 18
Комментарии: 28
Что такое ["без двоения+"]


 Профиль  
 
 СообщениеДобавлено: 23 дек 2017, 18:46 
Не в сети
Супермодератор
Аватара пользователя
Зарегистрирован: 15 апр 2014, 21:21
Торренты: 518
Раздал: 35.61 ТБ 
Скачал: 1.83 ТБ 
Ратио: 30.526
Спасибо: 2975 / 212
Сообщения: 684
Комментарии: 311
Откуда: РОССИЯ, ЦФО
nikolaisemerak писал(а):
Что такое ["без двоения+"]

Метод "без двоения" + кадры ручной прорисовки(каждый кадр создаётся с исходного с ручной прорисовкой карты глубины-с последующим созданием фото Real 3D

_________________


 Профиль  
 
Показать сообщения за:  Поле сортировки  
Начать новую тему Ответить на тему  [ Сообщений: 3 ] 


Кто сейчас на трекере

Сейчас этот форум просматривают: нет зарегистрированных пользователей и гости: 4


Вы не можете начинать темы
Вы не можете отвечать на сообщения
Вы не можете редактировать свои сообщения
Вы не можете удалять свои сообщения
Вы не можете добавлять вложения

Найти:


Правообладателям

!ВНИМАНИЕ!
Ресурс не предоставляет электронные версии произведений, а занимается лишь коллекционированием и каталогизацией ссылок, присылаемых и публикуемых на форуме нашими читателями. Если вы являетесь правообладателем какого-либо представленного материала и не желаете чтобы ссылка на него находилась в нашем каталоге, свяжитесь с нами и мы незамедлительно удалим её. Файлы для обмена на трекере предоставлены пользователями сайта, и администрация не несёт ответственности за их содержание. Просьба не заливать файлы, защищенные авторскими правами, а также файлы нелегального содержания!
cron
Вверх страницы
Вниз страницы
ppkBB3cker v.2 © 2008-2011 @ PPK