3d-tracker.ru • Просмотр темы - Джиперс Криперс 3 в / Jeepers Creepers 3 (2017) [2д->3D, BDRip, Half Side-by-Side / Горизонтальная анаморфная пара]

Регистрация Имя: Пароль: Запомнить Забыли пароль?



Правила форума





Начать новую тему Ответить на тему  [ 1 сообщение ] 
Статистика раздачи
Размер: 4.18 ГБ | Зарегистрирован: 24 дек 2017, 10:16 | .torrent скачан: 8
Сиды: 2 [0 байт/сек]    Личи: 0 [0 байт/сек]
Автор Сообщение
 СообщениеДобавлено: 24 дек 2017, 10:16 
Не в сети
Супермодератор
Аватара пользователя
Зарегистрирован: 15 апр 2014, 21:21
Торренты: 519
Раздал: 35.89 ТБ 
Скачал: 1.83 ТБ 
Ратио: 30.676
Спасибо: 3008 / 212
Сообщения: 685
Комментарии: 311
Откуда: РОССИЯ, ЦФО

Название: Джиперс Криперс 3
Оригинальное название: Jeepers Creepers 3
Год выхода: 2017
Жанр: Ужасы, триллер
Режиссер: Виктор Сальва
В ролях: Мег Фостер, Джина Филипс, Джонатан Брек, Стэн Шоу, Честер Рашинг, Дон Йессо, Габриэль Хоф, Кэрри Лазар, Майкл Пападжон, Джойс Жиро, Джейсон Бэйл, Дэйв Дэвис, Брэндон Смит, Мэг Райт, Джордан Сэллоум

О фильме: Триш Дженнер воспитывает сына-подростка, которого она назвала Дэрри — в честь брата, погибшего в когтях чудовищного монстра. По ночам Триш видит один и тот же кошмар, в котором её сына ждёт та же участь, что и брата. Ведь каждую 23-ю весну просыпается зловещий монстр Джиперс Криперс и 23 дня, распространяя ужас и страх, рыскает по свету в поисках новых жертв. Время пробуждения приближается...

Страна: США
Студия: Infinity Films, Myriad Pictures, The Cartel, Village Studios (II), Ansgar Media
Продолжительность: 01:33:42
Перевод: Дублированный | iTunes

Качество: BDRip (1080p)
Видео: AVC, 5877 кбит/сек, 23.976 fps, 1920x800
Аудио: Русский AC3, 6 ch, 384 Кбит/с
Размер: 4,18 Гб

Формат 3D: Half SideBySide / Горизонтальная анаморфная пара
Порядок ракурсов: Левый-первый
Формат : Matroska
Версия формата : Version 4 / Version 2
Размер файла : 4,18 Гбайт
Программа кодирования : mkvmerge v7.1.0 ('Good Love') 64bit
Библиотека кодирования : libebml v1.3.0 + libmatroska v1.4.1
Attachements : Cover.JPG
DURATION : 01:33:41.984000000

Видео
Идентификатор : 1
Формат : AVC
Формат/Информация : Advanced Video Codec
Профиль формата : High@L4.0
Параметр CABAC формата : Да
Параметр ReFrames формата : 2 кадра
Идентификатор кодека : V_MPEG4/ISO/AVC
Битрейт : 5877 Кбит/сек
Ширина : 1920 пикселей
Высота : 1080 пикселей
Соотношение сторон : 16:9
Режим частоты кадров : Постоянный
Частота кадров : 23,976 кадра/сек
Цветовое пространство : YUV
Субдискретизация насыщенности : 4:2:0
Битовая глубина : 8 бит
Тип развёртки : Прогрессивная
Бит/(Пиксели*Кадры) : 0.118
Размер потока : 3,85 Гбайт (92%)
Язык : English
Default : Да
Forced : Нет

Аудио
Идентификатор : 2
Формат : AC-3
Формат/Информация : Audio Coding 3
Расширение режима : CM (complete main)
Параметр Endianness формата : Big
Идентификатор кодека : A_AC3
Вид битрейта : Постоянный
Битрейт : 384 Кбит/сек
Каналы : 6 каналов
Расположение каналов : Front: L C R, Side: L R, LFE
Частота : 48,0 КГц
Битовая глубина : 16 бит
Размер потока : 257 Мбайт (6%)
Язык : Russian
Default : Да
Forced : Нет

Информация о торренте
Торрент:  Зарегистрирован [24 дек 2017, 10:16] Для скачивания необходимо Зарегистрироваться!



Если Вы уже зарегистрированы, то авторизуйтесь на трекере!
Статус:  
Размер:  4.18 ГБ (4 488 929 064 байт)
Приватный:  Нет (DHT включён)
Хэш:  b21262b0d19252100a44
37f30c81b0043bbc45eb
Здоровье:  100%
.torrent скачан:  8
Как тут качать  Правила, основные инструкции, FAQ-и



_________________


 Профиль  
 
Показать сообщения за:  Поле сортировки  
Начать новую тему Ответить на тему  [ 1 сообщение ] 


Кто сейчас на трекере

Сейчас этот форум просматривают: GoGo.Ru [Bot] и гости: 3


Вы не можете начинать темы
Вы не можете отвечать на сообщения
Вы не можете редактировать свои сообщения
Вы не можете удалять свои сообщения
Вы не можете добавлять вложения

Найти:
 cron

Правообладателям

!ВНИМАНИЕ!
Ресурс не предоставляет электронные версии произведений, а занимается лишь коллекционированием и каталогизацией ссылок, присылаемых и публикуемых на форуме нашими читателями. Если вы являетесь правообладателем какого-либо представленного материала и не желаете чтобы ссылка на него находилась в нашем каталоге, свяжитесь с нами и мы незамедлительно удалим её. Файлы для обмена на трекере предоставлены пользователями сайта, и администрация не несёт ответственности за их содержание. Просьба не заливать файлы, защищенные авторскими правами, а также файлы нелегального содержания!
cron
Вверх страницы
Вниз страницы
ppkBB3cker v.2 © 2008-2011 @ PPK