3d-tracker.ru • Просмотр темы - Паранойя в 3Д / Disturbia 3D (2007) [2d->3D, BDRip, 1080p, Half Side-by-Side / Горизонтальная анаморфная пара]

Регистрация Имя: Пароль: Запомнить Забыли пароль?



Правила форума





Начать новую тему Ответить на тему  [ 1 сообщение ] 
Статистика раздачи
Размер: 4.4 ГБ | Зарегистрирован: 25 дек 2017, 13:04 | .torrent скачан: 4
Сиды: 1 [0 байт/сек]    Личи: 0 [0 байт/сек]
Автор Сообщение
 СообщениеДобавлено: 25 дек 2017, 13:04 
Не в сети
Супермодератор
Аватара пользователя
Зарегистрирован: 15 апр 2014, 21:21
Торренты: 518
Раздал: 35.61 ТБ 
Скачал: 1.83 ТБ 
Ратио: 30.526
Спасибо: 2975 / 212
Сообщения: 684
Комментарии: 311
Откуда: РОССИЯ, ЦФО

Название: Паранойя
Оригинальное название: Disturbia
Год выхода: 2007
Жанр: триллер, драма

Режиссер: Ди Джей Карузо
В главных ролях: Шайа ЛаБаф, Сара Ремер, Кэрри-Энн Мосс, Дэвид Морс, Аарон Йу, Хосе Пабло Кантилльо, Мэтт Крэвен, Виола Дэвис, Брэндон Карузо, Лучиано Раузо
О фильме: До автокатастрофы, в которой погиб его отец, жизнь Кейла и его семьи была пригородным раем: счастливая семья, живущая в прекрасном двухэтажном доме на лоне природы. Однако после гибели отца жизнь изменилась. Да еще когда один из школьных учителей Кейла позволит себе бестактную шутку по поводу отца, Кейл ответит ему так, что окажется в суде. Его приговаривают к домашнему аресту: он должен носить на ноге браслет, который сигнализирует полиции, если он отойдет от дома дальше, чем на тридцать метров. Теперь он сходит с ума в собственном доме, пока его мама пытается свести концы с концами, работая почти круглосуточно. Окна его дома становятся его миром. Он не хочет разбираться со своими чувствами, потому что это для него слишком болезненно. Так он начинает смотреть по сторонам, изучать боль и трагедии других людей, формирование и распад их взаимоотношений. И в процессе этого он находит человека, которого он считает убийцей.

Выпущено: США (DreamWorks SKG)
Продолжительность: 01:38:19
Перевод: Профессиональный (полное дублирование) BluRay CEE

Качество: BDRip (1080p)
Видео: AVC, 5892 кбит/сек, 23.976 fps, 1920x1080
Аудио: Русский AC3, 6 ch, 384 Кбит/с
Размер: 4,40 Гб

Формат 3D: Half SideBySide / Горизонтальная анаморфная пара
Порядок ракурсов: Левый-первый
Формат : Matroska
Версия формата : Version 4 / Version 2
Размер файла : 4,40 Гбайт
Название фильма : ПАРАНОЙЯ в 3Д / 3D (2007)
Программа кодирования : mkvmerge v7.1.0 ('Good Love') 64bit
Библиотека кодирования : libebml v1.3.0 + libmatroska v1.4.1
Attachements : Cover.png
DURATION : 01:38:18.895000000

Видео
Идентификатор : 1
Формат : AVC
Формат/Информация : Advanced Video Codec
Профиль формата : High@L4.0
Параметр CABAC формата : Да
Параметр ReFrames формата : 2 кадра
Идентификатор кодека : V_MPEG4/ISO/AVC
Битрейт : 5892 Кбит/сек
Ширина : 1920 пикселей
Высота : 1080 пикселей
Соотношение сторон : 16:9
Режим частоты кадров : Постоянный
Частота кадров : 23,976 кадра/сек
Цветовое пространство : YUV
Субдискретизация насыщенности : 4:2:0
Битовая глубина : 8 бит
Бит/(Пиксели*Кадры) : 0.119
Размер потока : 4,05 Гбайт (92%)
Язык : English
Default : Да
Forced : Нет

Аудио
Идентификатор : 2
Формат : AC-3
Формат/Информация : Audio Coding 3
Расширение режима : CM (complete main)
Параметр Endianness формата : Big
Идентификатор кодека : A_AC3
Вид битрейта : Постоянный
Битрейт : 384 Кбит/сек
Каналы : 6 каналов
Расположение каналов : Front: L C R, Side: L R, LFE
Частота : 48,0 КГц
Битовая глубина : 16 бит
Размер потока : 270 Мбайт (6%)
Язык : Russian
Default : Да
Forced : Нет

Информация о торренте
Торрент:  Зарегистрирован [25 дек 2017, 13:04] Для скачивания необходимо Зарегистрироваться!



Если Вы уже зарегистрированы, то авторизуйтесь на трекере!
Статус:  
Размер:  4.4 ГБ (4 721 604 821 байт)
Приватный:  Нет (DHT включён)
Хэш:  cb1e033805734855ab54
4927aeb9da5e8ce5679b
Здоровье:  100%
.torrent скачан:  4
Как тут качать  Правила, основные инструкции, FAQ-и



_________________


 Профиль  
 
Показать сообщения за:  Поле сортировки  
Начать новую тему Ответить на тему  [ 1 сообщение ] 


Кто сейчас на трекере

Сейчас этот форум просматривают: нет зарегистрированных пользователей и гости: 4


Вы не можете начинать темы
Вы не можете отвечать на сообщения
Вы не можете редактировать свои сообщения
Вы не можете удалять свои сообщения
Вы не можете добавлять вложения

Найти:


Правообладателям

!ВНИМАНИЕ!
Ресурс не предоставляет электронные версии произведений, а занимается лишь коллекционированием и каталогизацией ссылок, присылаемых и публикуемых на форуме нашими читателями. Если вы являетесь правообладателем какого-либо представленного материала и не желаете чтобы ссылка на него находилась в нашем каталоге, свяжитесь с нами и мы незамедлительно удалим её. Файлы для обмена на трекере предоставлены пользователями сайта, и администрация не несёт ответственности за их содержание. Просьба не заливать файлы, защищенные авторскими правами, а также файлы нелегального содержания!
cron
Вверх страницы
Вниз страницы
ppkBB3cker v.2 © 2008-2011 @ PPK