3d-tracker.ru • Просмотр темы - Максимальный удар в 3Д / 3D (2017) [2d->3D, 1080p, Half Side-by-Side / Горизонтальная анаморфная пара]

Регистрация Имя: Пароль: Запомнить Забыли пароль?



Правила форума





Начать новую тему Ответить на тему  [ 1 сообщение ] 
Статистика раздачи
Размер: 3.71 ГБ | Зарегистрирован: 27 дек 2017, 14:53 | .torrent скачан: 4
Сиды: 3 [0 байт/сек]    Личи: 0 [0 байт/сек]
Автор Сообщение
 СообщениеДобавлено: 27 дек 2017, 14:53 
Не в сети
Супермодератор
Аватара пользователя
Зарегистрирован: 15 апр 2014, 21:21
Торренты: 518
Раздал: 35.61 ТБ 
Скачал: 1.83 ТБ 
Ратио: 30.526
Спасибо: 2975 / 212
Сообщения: 684
Комментарии: 311
Откуда: РОССИЯ, ЦФО

Название: Максимальный удар
Оригинальное название: Максимальный удар
Год выхода: 2017
Жанр: боевик, комедия
Режиссер: Анджей Бартковяк

В ролях: Александр Невский, Евгений Стычкин, Дэнни Трехо, Кит Пауэрс, Том Арнольд, Марк Дакаскос, Эрик Робертс, Бай Лин, Келли Ху, Полина Буторина
О фильме: Лучшим агентам ФСБ и ЦРУ предстоит совместная миссия — остановить преступного лидера, похитившего внучку госсекретаря США, который прибыл в Москву с тайным визитом. В случае провала миру грозит взрывоопасный кризис.

Выпущено: Россия, США
Продолжительность: 01:41:28
Перевод: Дублированный(iTunes)

Качество: (1080p)
Видео: AVC, 4675 кбит/сек, 25,000 fps, 1920x804
Аудио: Русский AC3, 6 ch, 448 Кбит/с
Размер: 3,71 Гб

Формат 3D: Half SideBySide / Горизонтальная анаморфная пара
Порядок ракурсов: Левый-первый
Формат : Matroska
Версия формата : Version 4 / Version 2
Размер файла : 3,71 Гбайт
Название фильма : Максимальный Удар в 3Д / 3D (2017)
Программа кодирования : mkvmerge v7.1.0 ('Good Love') 64bit
Библиотека кодирования : libebml v1.3.0 + libmatroska v1.4.1
Attachements : Cover.png
DURATION : 01:41:28.416000000

Видео
Идентификатор : 1
Формат : AVC
Формат/Информация : Advanced Video Codec
Профиль формата : High@L4.1
Параметр CABAC формата : Да
Параметр ReFrames формата : 2 кадра
Идентификатор кодека : V_MPEG4/ISO/AVC
Битрейт : 4675 Кбит/сек
Ширина : 1920 пикселей
Высота : 804 пикселя
Соотношение сторон : 2,40:1
Режим частоты кадров : Постоянный
Частота кадров : 25,000 кадров/сек
Цветовое пространство : YUV
Субдискретизация насыщенности : 4:2:0
Битовая глубина : 8 бит
Тип развёртки : Прогрессивная
Бит/(Пиксели*Кадры) : 0.121
Размер потока : 3,31 Гбайт (89%)
Библиотека кодирования : x264 core
Язык : English
Default : Да
Forced : Нет

Аудио
Идентификатор : 2
Формат : AC-3
Формат/Информация : Audio Coding 3
Расширение режима : CM (complete main)
Параметр Endianness формата : Big
Идентификатор кодека : A_AC3
Вид битрейта : Постоянный
Битрейт : 448 Кбит/сек
Каналы : 6 каналов
Расположение каналов : Front: L C R, Side: L R, LFE
Частота : 48,0 КГц
Битовая глубина : 16 бит
Размер потока : 325 Мбайт (9%)
Язык : Russian
Default : Да
Forced : Нет

Информация о торренте
Торрент:  Зарегистрирован [27 дек 2017, 14:53] Для скачивания необходимо Зарегистрироваться!



Если Вы уже зарегистрированы, то авторизуйтесь на трекере!
Статус:  
Размер:  3.71 ГБ (3 978 331 481 байт)
Приватный:  Нет (DHT включён)
Хэш:  566b68bc215d4bb95c24
92ce06317cac890c20f6
Здоровье:  100%
.torrent скачан:  4
Как тут качать  Правила, основные инструкции, FAQ-и



_________________


 Профиль  
 
Показать сообщения за:  Поле сортировки  
Начать новую тему Ответить на тему  [ 1 сообщение ] 


Кто сейчас на трекере

Сейчас этот форум просматривают: нет зарегистрированных пользователей и гости: 4


Вы не можете начинать темы
Вы не можете отвечать на сообщения
Вы не можете редактировать свои сообщения
Вы не можете удалять свои сообщения
Вы не можете добавлять вложения

Найти:


Правообладателям

!ВНИМАНИЕ!
Ресурс не предоставляет электронные версии произведений, а занимается лишь коллекционированием и каталогизацией ссылок, присылаемых и публикуемых на форуме нашими читателями. Если вы являетесь правообладателем какого-либо представленного материала и не желаете чтобы ссылка на него находилась в нашем каталоге, свяжитесь с нами и мы незамедлительно удалим её. Файлы для обмена на трекере предоставлены пользователями сайта, и администрация не несёт ответственности за их содержание. Просьба не заливать файлы, защищенные авторскими правами, а также файлы нелегального содержания!
cron
Вверх страницы
Вниз страницы
ppkBB3cker v.2 © 2008-2011 @ PPK