3d-tracker.ru • Просмотр темы - Звездные врата / Stargate (1994) [2d->3D, BDRip, 1080p, Zoom Half OverUnder / Вертикальная анаморфная пара на весь экран]

Регистрация Имя: Пароль: Запомнить Забыли пароль?



Правила форума





Начать новую тему Ответить на тему  [ Сообщений: 3 ] 
Статистика раздачи
Размер: 5.38 ГБ | Зарегистрирован: 27 дек 2017, 19:44 | .torrent скачан: 5
Сиды: 0 [0 байт/сек]    Личи: 4 [0 байт/сек]
Автор Сообщение
 СообщениеДобавлено: 27 дек 2017, 19:44 
Не в сети
Бывалый
Зарегистрирован: 15 май 2014, 15:05
Торренты: 38
Раздал: 2.97 ТБ 
Скачал: 1.26 ТБ 
Ратио: 2.355
Спасибо: 219 / 737
Сообщения: 138
Комментарии: 135

Название: Звездные врата
Оригинальное название: Stargate
Год выхода: 1994
Жанр: фантастика, боевик, приключения

Режиссер: Роланд Эммерих
В ролях: Курт Рассел, Джеймс Спэйдер, Алексис Крус, Вивека Линдфорс, Мили Авитал, Джон Дил, Леон Риппи, Карлос Лаучу, Джимон Хунсу, Эрик Авари
О фильме: 1928 год. Египет. Археолог находит странное сооружение. Через много лет уже в наше время его дочь привлекает молодого специалиста Джексона для разгадки тайны, над которой бьются ученые на военной базе в горах. Таинственное сооружение оказывается проходом в другие миры. С группой спецназа Джексон и полковник отправляются через звездные врата навстречу неизведанному. А там их ждут суровые испытания и борьба, от исхода которой зависит судьба человечества.

Выпущено: Canal+
Продолжительность: 02:00:28
Перевод: Профессиональный (многоголосый, закадровый)

Качество: BDRip (источник: Blu-ray Disc)
Видео: 1920x1080, 23.976 fps, 5882 kbps
Аудио: AC-3, 6 ch, 384 kbps (Многоголосый закадровый, ОРТ)
Размер: 5,38 Гб

Формат 3D: Half OverUnder / Вертикальная анаморфная стереопара (16:9)
Порядок ракурсов: левый ракурс - первый
Формат : Matroska
Версия формата : Version 4 / Version 2
Размер файла : 5,38 Гбайт
Программа кодирования : mkvmerge v7.1.0
Библиотека кодирования : libebml v1.3.0 + libmatroska v1.4.1
Attachements : Cover.JPG
DURATION : 02:00:28.000000000

Видео
Идентификатор : 1
Формат : AVC
Формат/Информация : Advanced Video Codec
Профиль формата : High@L4.0
Параметр CABAC формата : Да
Параметр ReFrames формата : 2 кадра
Идентификатор кодека : V_MPEG4/ISO/AVC
Битрейт : 5882 Кбит/сек
Ширина : 1920 пикселей
Высота : 1080 пикселей
Соотношение сторон : 16:9
Режим частоты кадров : Постоянный
Частота кадров : 23,976 кадра/сек
Цветовое пространство : YUV
Субдискретизация насыщенности : 4:2:0
Битовая глубина : 8 бит
Тип развёртки : Прогрессивная
Бит/(Пиксели*Кадры) : 0.118
Размер потока : 4,95 Гбайт (92%)
Язык : English
Default : Да
Forced : Нет

Аудио
Идентификатор : 2
Формат : AC-3
Формат/Информация : Audio Coding 3
Расширение режима : CM (complete main)
Параметр Endianness формата : Big
Идентификатор кодека : A_AC3
Вид битрейта : Постоянный
Битрейт : 384 Кбит/сек
Каналы : 6 каналов
Расположение каналов : Front: L C R, Side: L R, LFE
Частота : 48,0 КГц
Битовая глубина : 16 бит
Размер потока : 331 Мбайт (6%)
Язык : Russian
Default : Да
Forced : Нет

Информация о торренте
Торрент:  Зарегистрирован [27 дек 2017, 19:44] Для скачивания необходимо Зарегистрироваться!



Если Вы уже зарегистрированы, то авторизуйтесь на трекере!
Статус:   изменил Soldat (27 дек 2017, 19:46)
Размер:  5.38 ГБ (5 776 436 963 байт)
Приватный:  Нет (DHT включён)
Хэш:  9b8dcdfb89f4f4cb7e40
61bca959bea25a9525cf
Здоровье:  ???%
.torrent скачан:  5
Как тут качать  Правила, основные инструкции, FAQ-и




 Профиль  
 
 СообщениеДобавлено: 28 дек 2017, 14:56 
Не в сети
заглянувший
Зарегистрирован: 08 дек 2017, 15:54
Торренты: 0
Раздал: 5 ГБ 
Скачал: 5.48 ГБ 
Ратио: None.
Спасибо: 0 / 0
Сообщения: 1
Комментарии: 1
Подскажите - это конвертация или нет? Спасибо с наступающим Вас.


 Профиль  
 
 СообщениеДобавлено: 28 дек 2017, 16:56 
Не в сети
Супермодератор
Аватара пользователя
Зарегистрирован: 15 апр 2014, 21:21
Торренты: 519
Раздал: 35.89 ТБ 
Скачал: 1.83 ТБ 
Ратио: 30.676
Спасибо: 3008 / 212
Сообщения: 685
Комментарии: 311
Откуда: РОССИЯ, ЦФО



_________________


 Профиль  
 
Показать сообщения за:  Поле сортировки  
Начать новую тему Ответить на тему  [ Сообщений: 3 ] 


Кто сейчас на трекере

Сейчас этот форум просматривают: нет зарегистрированных пользователей и гости: 3


Вы не можете начинать темы
Вы не можете отвечать на сообщения
Вы не можете редактировать свои сообщения
Вы не можете удалять свои сообщения
Вы не можете добавлять вложения

Найти:


Правообладателям

!ВНИМАНИЕ!
Ресурс не предоставляет электронные версии произведений, а занимается лишь коллекционированием и каталогизацией ссылок, присылаемых и публикуемых на форуме нашими читателями. Если вы являетесь правообладателем какого-либо представленного материала и не желаете чтобы ссылка на него находилась в нашем каталоге, свяжитесь с нами и мы незамедлительно удалим её. Файлы для обмена на трекере предоставлены пользователями сайта, и администрация не несёт ответственности за их содержание. Просьба не заливать файлы, защищенные авторскими правами, а также файлы нелегального содержания!
cron
Вверх страницы
Вниз страницы
ppkBB3cker v.2 © 2008-2011 @ PPK