3d-tracker.ru • Просмотр темы - Терминатор II.Судный день 3D (Terminator II.Judgment Day 3D.1991) / Remastered 2017

Регистрация Имя: Пароль: Запомнить Забыли пароль?



Правила форума





Начать новую тему Ответить на тему  [ Сообщений: 4 ] 
Статистика раздачи
Размер: 23.36 ГБ | Зарегистрирован: 28 дек 2017, 00:34 | .torrent скачан: 6
Сиды: 3 [0 байт/сек]    Личи: 3 [0 байт/сек]
Автор Сообщение
 СообщениеДобавлено: 28 дек 2017, 00:28 
Не в сети
заглянувший
Аватара пользователя
Зарегистрирован: 05 окт 2017, 13:02
Торренты: 3
Раздал: 180.82 ГБ 
Скачал: 64.85 ГБ 
Ратио: 2.788
Спасибо: 13 / 0
Сообщения: 3
Комментарии: 0

Оригинальное названи: Terminator 2: Judgment Day 3D.
Страна: США, Франция
Продолжительность: 02:36:16
Дата выхода: 24 августа 2017
Жанр: Фантастика, Боевик, Триллер
Режиссёр: Джеймс Кэмерон (James Cameron)
В ролях:
Арнольд Шварценеггер (The Terminator), Линда Хэмилтон (Sarah Connor), Эдвард Ферлонг (John Connor),
Роберт Патрик (T-1000), Эрл Боэн (Dr. Silberman), Джо Мортон (Miles Dyson), Дэнни Кукси (Tim),
С. Ипейта Меркерсон (Tarissa Dyson) Кастуло Герра (Enrique Salceda), Ксандер Беркли (Todd Voight)
Дженетт Голдстин (Janelle Voight)
О фильме:
Война роботов и людей продолжается. Казалось, что человечество обречено на полное уничтожение.
Но благодаря своему лидеру Джону Коннору у сопротивления появляется шанс победить.
Не имея возможности убить Джона в реальном времени, роботы отправляют в прошлое
свою самую совершенную разработку — терминатора-убийцу из жидкого металла, способного
принимать любое обличье. Теперь, чтобы победить в будущем, юному Джону Коннору
надо выжить в настоящем. Его шансы существенно повышаются, когда на помощь
приходит перепрограммированный сопротивлением терминатор предыдущего поколения.
Оба робота вступают в смертельный бой, от исхода которого зависит судьба человечества.
Перевод:
Профессиональный, закадровый (многоголосный), Авторский, закадровый (одноголосый)
Контейнер: mkv
Формат аудио:
AC3, Dolby Digital, 48 kHz, 6 ch, Surround, 640-384 kbps.
Язык 1: Русский
Язык 2: Английский
Субтитры:
Русский (форсированный, полные), Английские.
Формат видео:
AVC. h.264. 23,976 fps, 15,0 Mb/s. High@L4.1.
Качество видео: BDrip
Размер видео: 1920×800
Формат 3D: Half OverUnder / Вертикальная анаморфная стереопара
Порядок ракурсов: левый ракурс - первый
[img]
#1 Audio RUS. Dolby Digital, 48 kHz, AC3, 6 ch, Surround, 640 kbps. (Русский, многоголосый. [Киномания.])
#2 Audio RUS. Dolby Digital, 48 kHz, AC3, 6 ch, Surround, 384 kbps. (Русский, многоголосый. [Позитив.])
#3 Audio RUS. Dolby Digital, 48 kHz, AC3, 6 ch, Surround, 384 kbps. (Русский, многоголосый. [CP Digital.])
#4 Audio RUS. Dolby Digital, 48 kHz, AC3, 6 ch, Surround, 384 kbps. (Русский, многоголосый. [Селена-Интернешнл ОРТ.])
#5 Audio RUS. Dolby Digital, 48 kHz, AC3, 6 ch, Surround, 384 kbps. (Русский, многоголосый. [ТВ-6.])
#6 Audio RUS. Dolby Digital, 48 kHz, AC3, 6 ch, Surround, 384 kbps. (Русский, одноголосый, авторский. [Д.Пучков;Гоблин.])
#7 Audio RUS. Dolby Digital, 48 kHz, AC3, 6 ch, Surround, 384 kbps. (Русский, одноголосый, авторский. [А.Гаврилов.])
#8 Audio RUS. Dolby Digital, 48 kHz, AC3, 6 ch, Surround, 384 kbps. (Русский, одноголосый, авторский. [Ю.Живов.])
#9 Audio RUS. Dolby Digital, 48 kHz, AC3, 6 ch, Surround, 384 kbps. (Русский, одноголосый, авторский. [В.Горчаков.)
#10 Audio RUS. Dolby Digital, 48 kHz, AC3, 6 ch, Surround, 384 kbps. (Русский, одноголосый. [Д.Есарёв.])
#11 Audio RUS. Dolby Digital, 48 kHz, AC3, 6 ch, Surround, 384 kbps. (Русский, одноголосый. [В.Дохалов.])
#12 Audio RUS. Dolby Digital, 48 kHz, AC3, 6 ch, Surround, 384 kbps. (Русский, одноголосый. [В.Махонько.])
#13 Audio RUS. Dolby Digital, 48 kHz, AC3, 6 ch, Surround, 384 kbps. (Русский, одноголосый. [П.Морозов.] ненорматив)
#14 Audio RUS. Dolby Digital, 48 kHz, AC3, 6 ch, Surround, 384 kbps. (Русский, одноголосый. [А.Танетко.])
#15 Audio RUS. Dolby Digital, 48 kHz, AC3, 6 ch, Surround, 384 kbps. (Русский, одноголосый. [«ХОББИТ» с вставками «ГОБЛИНА»])
#16 Audio ENG. Dolby Digital, 48 kHz, AC3, 6 ch, Surround, 384 kbpa. (Английский.)[/img]

MediaInfo: Unique ID : 184276134992094914519468443587757425152 (0x8AA24AEA91617D30A1063FCCDE934200)
Complete name : D:\3D_КИНО\Терминатор II.Судный день 3D.(Terminator II.Judgment Day 3D.) 1991(2017)BDRip.AVC.1080p.(15xRUS.ENG.).mkv
Format : Matroska
Format version : Version 4 / Version 2
File size : 23.4 GiB
Duration : 2 h 36 min
Overall bit rate : 21.4 Mb/s
Movie name : Терминатор 2: Судный день / Terminator 2: Judgment Day (1991) in 3D + 2D inserts
Encoded date : UTC 2017-12-27 18:48:07
Writing application : mkvmerge v7.7.0 ('Six Voices') 64bit built on Feb 28 2015 23:39:33
Writing library : libebml v1.3.1 + libmatroska v1.4.2
Cover : Yes
Attachments : Cover.jpg / Cover.jpg

Video
ID : 2
Format : AVC
Format/Info : Advanced Video Codec
Format profile : High@L4.1
Format settings : CABAC / 4 Ref Frames
Format settings, CABAC : Yes
Format settings, ReFrames : 4 frames
Codec ID : V_MPEG4/ISO/AVC
Duration : 2 h 36 min
Bit rate : 15.0 Mb/s
Width : 1 920 pixels
Height : 1 080 pixels
Display aspect ratio : 16:9
Frame rate mode : Constant
Frame rate : 23.976 (24000/1001) FPS
Color space : YUV
Chroma subsampling : 4:2:0
Bit depth : 8 bits
Scan type : Progressive
Bits/(Pixel*Frame) : 0.302
Stream size : 16.4 GiB (70%)
Title : #1 Video ENG. Terminator 2.Judgment Day 3D. 1991 (2017).BDRip, h264, 1080p, MPEG-4 AVC, 1920x1080, 23.976 fps, 15.0 Mb/s. (3D + вставки 2D) (монтаж Ash61)
Writing library : x264 core 146 r2538 121396c
Encoding settings : cabac=1 / ref=4 / deblock=1:-3:-3 / analyse=0x3:0x113 / me=umh / subme=10 / psy=1 / psy_rd=1.00:0.00 / mixed_ref=1 / me_range=32 / chroma_me=1 / trellis=2 / 8x8dct=1 / cqm=0 / deadzone=21,11 / fast_pskip=0 / chroma_qp_offset=-2 / threads=12 / lookahead_threads=2 / sliced_threads=0 / nr=0 / decimate=0 / interlaced=0 / bluray_compat=0 / constrained_intra=0 / bframes=8 / b_pyramid=2 / b_adapt=2 / b_bias=0 / direct=3 / weightb=1 / open_gop=0 / weightp=2 / keyint=250 / keyint_min=23 / scenecut=40 / intra_refresh=0 / rc_lookahead=60 / rc=2pass / mbtree=0 / bitrate=15000 / ratetol=1.0 / qcomp=0.70 / qpmin=0 / qpmax=69 / qpstep=4 / cplxblur=20.0 / qblur=0.5 / vbv_maxrate=40000 / vbv_bufsize=30000 / nal_hrd=none / filler=0 / frame-packing=4 / ip_ratio=1.40 / pb_ratio=1.30 / aq=1:0.70
Language : English
Default : Yes
Forced : No

Audio #1
ID : 1
Format : AC-3
Format/Info : Audio Coding 3
Codec ID : A_AC3
Duration : 2 h 36 min
Bit rate mode : Constant
Bit rate : 384 kb/s
Channel(s) : 6 channels
Channel positions : Front: L C R, Side: L R, LFE
Sampling rate : 48.0 kHz
Frame rate : 31.250 FPS (1536 SPF)
Bit depth : 16 bits
Compression mode : Lossy
Stream size : 429 MiB (2%)
Title : #1 Audio RUS. Dolby Digital, 48 kHz, AC3, 6 ch, Surround, 384 kbps. (Русский, многоголосый. Киномания. [The original file - Audio Russian DTS-HD MA 6 ch, 3664 kbps. 24 bit.]) монтаж Luber (Uhtomka)
Language : Russian
Service kind : Complete Main
Default : Yes
Forced : No

Audio #2
ID : 3
Format : AC-3
Format/Info : Audio Coding 3
Codec ID : A_AC3
Duration : 2 h 36 min
Bit rate mode : Constant
Bit rate : 640 kb/s
Channel(s) : 6 channels
Channel positions : Front: L C R, Side: L R, LFE
Sampling rate : 48.0 kHz
Frame rate : 31.250 FPS (1536 SPF)
Bit depth : 16 bits
Compression mode : Lossy
Stream size : 715 MiB (3%)
Title : #2 Audio RUS. Dolby Digital, 48 kHz, AC3, 6 ch, Surround, 640 kbps. (Русский, многоголосый закадровый: Позитив. [The original file - Audio Russian DTS-HD MA 6 ch, 3528 kbps. 24 bit.]) (монтаж Luber [Uhtomka])
Language : Russian
Service kind : Complete Main
Default : No
Forced : No

Audio #3
ID : 4
Format : AC-3
Format/Info : Audio Coding 3
Codec ID : A_AC3
Duration : 2 h 36 min
Bit rate mode : Constant
Bit rate : 384 kb/s
Channel(s) : 6 channels
Channel positions : Front: L C R, Side: L R, LFE
Sampling rate : 48.0 kHz
Frame rate : 31.250 FPS (1536 SPF)
Bit depth : 16 bits
Compression mode : Lossy
Stream size : 429 MiB (2%)
Title : #3 Audio RUS. Dolby Digital, 48 kHz, AC3, 6 ch, Surround, 384 kbps. (Русский, многоголосый. CP Digital. [The original file - Audio Russian DTS-HD MA 6 ch, 3464 kbps. 24 bit.]) монтаж Luber (Uhtomka)
Language : Russian
Service kind : Complete Main
Default : No
Forced : No

Audio #4
ID : 5
Format : AC-3
Format/Info : Audio Coding 3
Codec ID : A_AC3
Duration : 2 h 36 min
Bit rate mode : Constant
Bit rate : 384 kb/s
Channel(s) : 6 channels
Channel positions : Front: L C R, Side: L R, LFE
Sampling rate : 48.0 kHz
Frame rate : 31.250 FPS (1536 SPF)
Bit depth : 16 bits
Compression mode : Lossy
Stream size : 429 MiB (2%)
Title : #4 Audio RUS. Dolby Digital, 48 kHz, AC3, 6 ch, Surround, 384 kbps. (Русский, многоголосый. Селена-Интернешнл ОРТ. [The original file - Audio Russian DTS-HD MA 6 ch, 3464 kbps. 24 bit.]) монтаж Luber (Uhtomka)
Language : Russian
Service kind : Complete Main
Default : No
Forced : No

Audio #5
ID : 6
Format : AC-3
Format/Info : Audio Coding 3
Codec ID : A_AC3
Duration : 2 h 36 min
Bit rate mode : Constant
Bit rate : 384 kb/s
Channel(s) : 6 channels
Channel positions : Front: L C R, Side: L R, LFE
Sampling rate : 48.0 kHz
Frame rate : 31.250 FPS (1536 SPF)
Bit depth : 16 bits
Compression mode : Lossy
Stream size : 429 MiB (2%)
Title : #5 Audio RUS. Dolby Digital, 48 kHz, AC3, 6 ch, Surround, 384 kbps. (Русский, многоголосый. ТВ-6. [The original file - Audio Russian DTS 6 ch, 1536 kbps. 24 bit.]) монтаж Luber (Uhtomka)
Language : Russian
Service kind : Complete Main
Default : No
Forced : No

Audio #6
ID : 7
Format : AC-3
Format/Info : Audio Coding 3
Codec ID : A_AC3
Duration : 2 h 36 min
Bit rate mode : Constant
Bit rate : 384 kb/s
Channel(s) : 6 channels
Channel positions : Front: L C R, Side: L R, LFE
Sampling rate : 48.0 kHz
Frame rate : 31.250 FPS (1536 SPF)
Bit depth : 16 bits
Compression mode : Lossy
Stream size : 429 MiB (2%)
Title : #6 Audio RUS. Dolby Digital, 48 kHz, AC3, 6 ch, Surround, 384 kbps. (Одноголосый, авторский, Д.Пучков;Гоблин. [The original file - Audio Russian DTS-HD MA 6 ch, 3627 kbps. 24 bit.]) монтаж Luber (Uhtomka)
Language : Russian
Service kind : Complete Main
Default : No
Forced : No

Audio #7
ID : 8
Format : AC-3
Format/Info : Audio Coding 3
Codec ID : A_AC3
Duration : 2 h 36 min
Bit rate mode : Constant
Bit rate : 384 kb/s
Channel(s) : 6 channels
Channel positions : Front: L C R, Side: L R, LFE
Sampling rate : 48.0 kHz
Frame rate : 31.250 FPS (1536 SPF)
Bit depth : 16 bits
Compression mode : Lossy
Stream size : 429 MiB (2%)
Title : #7 Audio RUS. Dolby Digital, 48 kHz, AC3, 6 ch, Surround, 384 kbps. (Одноголосый, авторский, А.Гаврилов. [The original file - Audio Russian DTS-HD MA 6 ch, 3627 kbps. 24 bit.]) монтаж Luber (Uhtomka)
Language : Russian
Service kind : Complete Main
Default : No
Forced : No

Audio #8
ID : 9
Format : AC-3
Format/Info : Audio Coding 3
Codec ID : A_AC3
Duration : 2 h 36 min
Bit rate mode : Constant
Bit rate : 384 kb/s
Channel(s) : 6 channels
Channel positions : Front: L C R, Side: L R, LFE
Sampling rate : 48.0 kHz
Frame rate : 31.250 FPS (1536 SPF)
Bit depth : 16 bits
Compression mode : Lossy
Stream size : 429 MiB (2%)
Title : #8 Audio RUS. Dolby Digital, 48 kHz, AC3, 6 ch, Surround, 384 kbps. (Одноголосый, авторский, Ю.Живов. [The original file - Audio Russian DTS-HD MA 6 ch, 2982 kbps. 24 bit.]) монтаж Luber (Uhtomka)
Language : Russian
Service kind : Complete Main
Default : No
Forced : No

Audio #9
ID : 10
Format : AC-3
Format/Info : Audio Coding 3
Codec ID : A_AC3
Duration : 2 h 36 min
Bit rate mode : Constant
Bit rate : 384 kb/s
Channel(s) : 6 channels
Channel positions : Front: L C R, Side: L R, LFE
Sampling rate : 48.0 kHz
Frame rate : 31.250 FPS (1536 SPF)
Bit depth : 16 bits
Compression mode : Lossy
Stream size : 429 MiB (2%)
Title : #9 Audio RUS. Dolby Digital, 48 kHz, AC3, 6 ch, Surround, 384 kbps. (Одноголосый, авторский, В.Горчаков. [The original file - Audio Russian DTS-HD MA 6 ch, 3052 kbps. 24 bit.]) монтаж Luber (Uhtomka)
Language : Russian
Service kind : Complete Main
Default : No
Forced : No

Audio #10
ID : 11
Format : AC-3
Format/Info : Audio Coding 3
Codec ID : A_AC3
Duration : 2 h 36 min
Bit rate mode : Constant
Bit rate : 384 kb/s
Channel(s) : 6 channels
Channel positions : Front: L C R, Side: L R, LFE
Sampling rate : 48.0 kHz
Frame rate : 31.250 FPS (1536 SPF)
Bit depth : 16 bits
Compression mode : Lossy
Stream size : 429 MiB (2%)
Title : #10 Audio RUS. Dolby Digital, 48 kHz, AC3, 6 ch, Surround, 384 kbps. (Русский, одноголосый. Д.Есарёв. [The original file - Audio Russian DTS-HD MA 6 ch, 3184 kbps. 24 bit.]) монтаж Luber (Uhtomka)
Language : Russian
Service kind : Complete Main
Default : No
Forced : No

Audio #11
ID : 12
Format : AC-3
Format/Info : Audio Coding 3
Codec ID : A_AC3
Duration : 2 h 36 min
Bit rate mode : Constant
Bit rate : 384 kb/s
Channel(s) : 6 channels
Channel positions : Front: L C R, Side: L R, LFE
Sampling rate : 48.0 kHz
Frame rate : 31.250 FPS (1536 SPF)
Bit depth : 16 bits
Compression mode : Lossy
Stream size : 429 MiB (2%)
Title : #11 Audio RUS. Dolby Digital, 48 kHz, AC3, 6 ch, Surround, 384 kbps. (Русский, одноголосый. В.Дохалов. [The original file - Audio Russian DTS, 6 ch, 768 kbps. 16 bit.]) монтаж Luber (Uhtomka)
Language : Russian
Service kind : Complete Main
Default : No
Forced : No

Audio #12
ID : 13
Format : AC-3
Format/Info : Audio Coding 3
Codec ID : A_AC3
Duration : 2 h 36 min
Bit rate mode : Constant
Bit rate : 384 kb/s
Channel(s) : 6 channels
Channel positions : Front: L C R, Side: L R, LFE
Sampling rate : 48.0 kHz
Frame rate : 31.250 FPS (1536 SPF)
Bit depth : 16 bits
Compression mode : Lossy
Stream size : 429 MiB (2%)
Title : #12 Audio RUS. Dolby Digital, 48 kHz, AC3, 6 ch, Surround, 384 kbps. (Русский, одноголосый. В.Махонько. [The original file - Audio Russian DTS 6 ch, 768 kbps. 24 bit.]) монтаж Luber (Uhtomka)
Language : Russian
Service kind : Complete Main
Default : No
Forced : No

Audio #13
ID : 14
Format : AC-3
Format/Info : Audio Coding 3
Codec ID : A_AC3
Duration : 2 h 36 min
Bit rate mode : Constant
Bit rate : 384 kb/s
Channel(s) : 6 channels
Channel positions : Front: L C R, Side: L R, LFE
Sampling rate : 48.0 kHz
Frame rate : 31.250 FPS (1536 SPF)
Bit depth : 16 bits
Compression mode : Lossy
Stream size : 429 MiB (2%)
Title : #13 Audio RUS. Dolby Digital, 48 kHz, AC3, 6 ch, Surround, 384 kbps. (Русский, любительский,одноголосый. П.Морозов. [Ненорматив]) монтаж Luber (Uhtomka)
Language : Russian
Service kind : Complete Main
Default : No
Forced : No

Audio #14
ID : 15
Format : AC-3
Format/Info : Audio Coding 3
Codec ID : A_AC3
Duration : 2 h 36 min
Bit rate mode : Constant
Bit rate : 384 kb/s
Channel(s) : 6 channels
Channel positions : Front: L C R, Side: L R, LFE
Sampling rate : 48.0 kHz
Frame rate : 31.250 FPS (1536 SPF)
Bit depth : 16 bits
Compression mode : Lossy
Stream size : 429 MiB (2%)
Title : #14 Audio RUS. Dolby Digital, 48 kHz, AC3, 6 ch, Surround, 384 kbps. (Русский, одноголосый. А.Танетко.[LostFilm]) монтаж Luber (Uhtomka)
Language : Russian
Service kind : Complete Main
Default : No
Forced : No

Audio #15
ID : 16
Format : AC-3
Format/Info : Audio Coding 3
Codec ID : A_AC3
Duration : 2 h 36 min
Bit rate mode : Constant
Bit rate : 384 kb/s
Channel(s) : 6 channels
Channel positions : Front: L C R, Side: L R, LFE
Sampling rate : 48.0 kHz
Frame rate : 31.250 FPS (1536 SPF)
Bit depth : 16 bits
Compression mode : Lossy
Stream size : 429 MiB (2%)
Title : #15 Audio RUS. Dolby Digital, 48 kHz, AC3, 6 ch, Surround, 384 kbps. (Русский, одноголосый. [«ХОББИТ» с вставками «ГОБЛИНА»]) монтаж Luber (Uhtomka)
Language : Russian
Service kind : Complete Main
Default : No
Forced : No

Audio #16
ID : 17
Format : AC-3
Format/Info : Audio Coding 3
Codec ID : A_AC3
Duration : 2 h 36 min
Bit rate mode : Constant
Bit rate : 384 kb/s
Channel(s) : 6 channels
Channel positions : Front: L C R, Side: L R, LFE
Sampling rate : 48.0 kHz
Frame rate : 31.250 FPS (1536 SPF)
Bit depth : 16 bits
Compression mode : Lossy
Stream size : 429 MiB (2%)
Title : #16 Audio ENG. Dolby Digital, 48 kHz, AC3, 6 ch, Surround, 384 kbpa. (Английский. [The original file - Audio English DTS-HD MA 8 ch, 5242 kbps. 24 bit.])
Language : English
Service kind : Complete Main
Default : No
Forced : No

Text #1
ID : 18
Format : UTF-8
Codec ID : S_TEXT/UTF8
Codec ID/Info : UTF-8 Plain Text
Duration : 2 h 14 min
Bit rate : 0 b/s
Count of elements : 29
Stream size : 987 Bytes (0%)
Title : #1 Subtitles RUS.Forced. (Субтитры Русские, форсированные,)
Language : Russian
Default : Yes
Forced : No

Text #2
ID : 19
Format : UTF-8
Codec ID : S_TEXT/UTF8
Codec ID/Info : UTF-8 Plain Text
Duration : 2 h 30 min
Bit rate : 44 b/s
Count of elements : 1105
Stream size : 49.7 KiB (0%)
Title : #2 Subtitles RUS.Full. (Субтитры Русские, полные. [Позитив])
Language : Russian
Default : No
Forced : No

Text #3
ID : 20
Format : UTF-8
Codec ID : S_TEXT/UTF8
Codec ID/Info : UTF-8 Plain Text
Duration : 2 h 30 min
Bit rate : 44 b/s
Count of elements : 1105
Stream size : 49.7 KiB (0%)
Title : #2 Subtitles RUS.Full.(Субтитры Русские, полные. [Киномания])
Language : Russian
Default : No
Forced : No

Text #4
ID : 21
Format : UTF-8
Codec ID : S_TEXT/UTF8
Codec ID/Info : UTF-8 Plain Text
Duration : 2 h 34 min
Bit rate : 28 b/s
Count of elements : 1076
Stream size : 32.4 KiB (0%)
Title : #4 Subtitles ENG.Full. (Субтитры Английские, полные. [Blu-Ray CEE])
Language : English
Default : No
Forced : No

Text #5
ID : 22
Format : UTF-8
Codec ID : S_TEXT/UTF8
Codec ID/Info : UTF-8 Plain Text
Duration : 2 h 34 min
Bit rate : 38 b/s
Count of elements : 1369
Stream size : 43.6 KiB (0%)
Title : #5 Subtitles ENG.Full SDH. (Субтитры Английские, полные. [Blu-Ray CEE])
Language : English
Default : No
Forced : No

Menu
00:00:00.000 : : 1
00:00:52.093 : : 2
00:03:38.301 : : 3
00:05:36.836 : : 4
00:06:48.408 : : 5
00:09:11.217 : : 6
00:10:33.758 : : 7
00:12:31.500 : : 8
00:13:38.651 : : 9
00:15:31.722 : : 10
00:16:31.907 : : 11
00:17:41.310 : : 12
00:19:12.150 : : 13
00:22:29.222 : : 14
00:25:56.471 : : 15
00:27:29.981 : : 16
00:28:53.189 : : 17
00:29:46.659 : : 18
00:31:23.047 : : 19
00:33:59.579 : : 20
00:35:10.233 : : 21
00:38:50.327 : : 22
00:41:33.407 : : 23
00:44:16.653 : : 24
00:46:12.769 : : 25
00:47:28.136 : : 26
00:51:14.696 : : 27
00:54:26.179 : : 28
00:56:10.742 : : 29
00:57:48.298 : : 30
00:58:31.758 : : 31
00:59:40.743 : : 32
01:01:50.665 : : 33
01:03:18.127 : : 34
01:07:51.358 : : 35
01:09:26.620 : : 36
01:10:07.536 : : 37
01:11:30.411 : : 38
01:14:56.658 : : 39
01:15:35.113 : : 40
01:16:24.955 : : 41
01:17:52.959 : : 42
01:20:15.268 : : 43
01:22:35.783 : : 44
01:25:05.391 : : 45
01:27:51.891 : : 46
01:32:12.151 : : 47
01:34:29.121 : : 48
01:34:59.401 : : 49
01:36:42.504 : : 50
01:43:01.842 : : 51
01:45:50.886 : : 52
01:47:52.382 : : 53
01:49:52.502 : : 54
01:50:32.167 : : 55
01:51:22.759 : : 56
01:53:30.887 : : 57
01:55:20.121 : : 58
01:55:52.612 : : 59
01:58:13.753 : : 60
01:59:44.760 : : 61
02:01:25.194 : : 62
02:02:37.808 : : 63
02:03:36.367 : : 64
02:06:15.359 : : 65
02:10:20.145 : : 66
02:13:49.437 : : 67
02:14:28.768 : : 68
02:15:01.926 : : 69
02:16:11.663 : : 70
02:16:46.781 : : 71
02:18:43.231 : : 72
02:20:43.059 : : 73
02:21:15.675 : : 74
02:21:51.502 : : 75
02:23:22.176 : : 76
02:25:35.393 : : 77
02:29:26.373 : : 78
02:31:24.116 : : 79
02:35:25.440 : : 80





Информация о торренте
Торрент:  Зарегистрирован [28 дек 2017, 00:34] Для скачивания необходимо Зарегистрироваться!



Если Вы уже зарегистрированы, то авторизуйтесь на трекере!
Статус:   изменил Soldat (28 дек 2017, 10:35)
Размер:  23.36 ГБ (25 086 926 532 байт)
Приватный:  Нет (DHT включён)
Хэш:  31b4f2e44bae1809a7ba
8a6a3a546a6d5707ef75
Здоровье:  100%
.torrent скачан:  6
Как тут качать  Правила, основные инструкции, FAQ-и




 Профиль  
 
 СообщениеДобавлено: 11 янв 2018, 22:41 
Не в сети
заглянувший
Зарегистрирован: 25 ноя 2014, 02:47
Торренты: 0
Раздал: 54.12 ГБ 
Скачал: 258.86 ГБ 
Ратио: 0.209
Спасибо: 0 / 2
Сообщения: 1
Комментарии: 1
kak 3D?


 Профиль  
 
 СообщениеДобавлено: 12 янв 2018, 08:49 
Не в сети
Супермодератор
Аватара пользователя
Зарегистрирован: 15 апр 2014, 21:21
Торренты: 519
Раздал: 35.86 ТБ 
Скачал: 1.83 ТБ 
Ратио: 30.663
Спасибо: 3008 / 212
Сообщения: 685
Комментарии: 311
Откуда: РОССИЯ, ЦФО
livonu писал(а):
kak 3D?

Глубокое!
Юбилейный студийный конверт!!!(Типа "Парк Юрского периода"

_________________


 Профиль  
 
 СообщениеДобавлено: 12 май 2018, 18:04 
Не в сети
заглянувший
Зарегистрирован: 04 фев 2018, 19:09
Торренты: 0
Раздал: 5 ГБ 
Скачал: 1.52 ГБ 
Ратио: None.
Спасибо: 0 / 0
Сообщения: 1
Комментарии: 1
я не могу скачать.нету ни каво


 Профиль  
 
Показать сообщения за:  Поле сортировки  
Начать новую тему Ответить на тему  [ Сообщений: 4 ] 


Кто сейчас на трекере

Сейчас этот форум просматривают: Bing [Bot] и гости: 2


Вы не можете начинать темы
Вы не можете отвечать на сообщения
Вы не можете редактировать свои сообщения
Вы не можете удалять свои сообщения
Вы не можете добавлять вложения

Найти:
 cron

Правообладателям

!ВНИМАНИЕ!
Ресурс не предоставляет электронные версии произведений, а занимается лишь коллекционированием и каталогизацией ссылок, присылаемых и публикуемых на форуме нашими читателями. Если вы являетесь правообладателем какого-либо представленного материала и не желаете чтобы ссылка на него находилась в нашем каталоге, свяжитесь с нами и мы незамедлительно удалим её. Файлы для обмена на трекере предоставлены пользователями сайта, и администрация не несёт ответственности за их содержание. Просьба не заливать файлы, защищенные авторскими правами, а также файлы нелегального содержания!
cron
Вверх страницы
Вниз страницы
ppkBB3cker v.2 © 2008-2011 @ PPK