3d-tracker.ru • Просмотр темы - Тэд-путешественник и тайна царя Мидаса в 3Д / Tadeo Jones 2: El secreto del Rey Midas 3D (2017) [BDRip, 1080p, Zoom Half OverUnder / Вертикальная анаморфная стереопара на весь экран]

Регистрация Имя: Пароль: Запомнить Забыли пароль?



Правила форума





Начать новую тему Ответить на тему  [ Сообщений: 2 ] 
Статистика раздачи
Размер: 6.74 ГБ | Зарегистрирован: 09 янв 2018, 08:17 | .torrent скачан: 18
Сиды: 5 [0 байт/сек]    Личи: 0 [0 байт/сек]
Автор Сообщение
 СообщениеДобавлено: 09 янв 2018, 08:17 
Не в сети
Супермодератор
Аватара пользователя
Зарегистрирован: 15 апр 2014, 21:21
Торренты: 519
Раздал: 35.97 ТБ 
Скачал: 1.83 ТБ 
Ратио: 30.723
Спасибо: 3011 / 212
Сообщения: 685
Комментарии: 311
Откуда: РОССИЯ, ЦФО

Название: Тэд-путешественник и тайна царя Мидаса
Оригинальное название: Tadeo Jones 2: El secreto del Rey Midas
Год выпуска: 2017
Жанр: Мультфильм, комедия, приключения
Выпущено: Испания, Ikiru Films, Institut Catala de les Empreses Culturals (ICEC)

Режиссер: Давид Алонсо, Энрике Гато
В ролях: Оскар Барберан, Мишель Хеннер, Адриана Угарте, Луис Посада, Мигель Анхель Хеннер, Хосе Корбачо, Росер Баталья, Рафаэль Калво, Давид Брау, Франческ Бельда
О фильме: Археолог-авантюрист и прирожденный охотник за сокровищами Тадео Джонс (Тревор Уайт) ввязывается в новые приключения, на этот раз отправляясь в Лас-Вегас. Там он мечтает своими глазами посмотреть на древний папирус, найденный его приятельницей — путешественницей Сарой (Мишель Хеннер). Этот папирус имеет непосредственное доказательство существования магического ожерелья короля Мидаса, с помощью которого он мог превратить любой предмет в золото. По приезду в Лас-Вегас Тадео обнаруживает, что его приятельница была похищена коварным Джеком Рэкхэмом, который планирует использовать папирус для своих корыстных целей.

Качество: BDRip (1080p)
Видео: MPEG-4 AVC, 10.1 Мбит/с, 1920x1080
Аудио: Русский (AC3, 6 ch, 384 Кбит/с), испанский (AC3, 6 ch, 640 Кбит/с)
Размер: 6.74 ГБ
Продолжительность: 01:24:58
Перевод: Дублированный (Лицензия iTunes)

Формат 3D: Zoom Half OverUnder / Вертикальная анаморфная стереопара (16:9)
Порядок ракурсов: левый ракурс - первый
Формат : Matroska
Версия формата : Version 2
Размер файла : 6,74 Гбайт
Название фильма : TADEO_JONES_2_3D_Zoom_HOU
Дата кодирования : UTC 2018-01-04 14:25:38
Программа кодирования : mkvmerge v5.8.0 ('No Sleep / Pillow')
Библиотека кодирования : libebml v1.2.3 + libmatroska v1.3.0

Видео
Идентификатор : 1
Формат : AVC
Формат/Информация : Advanced Video Codec
Профиль формата : High@L4.1
Параметр CABAC формата : Да
Параметр ReFrames формата : 4 кадра
Идентификатор кодека : V_MPEG4/ISO/AVC
Битрейт : 10,1 Мбит/сек
Ширина : 1920 пикселей
Высота : 1080 пикселей
Соотношение сторон : 16:9
Режим частоты кадров : Постоянный
Частота кадров : 23,976 кадра/сек
Цветовое пространство : YUV
Субдискретизация насыщенности : 4:2:0
Битовая глубина : 8 бит
Тип развёртки : Прогрессивная
Бит/(Пиксели*Кадры) : 0.203
Размер потока : 6,00 Гбайт (89%)
Библиотека кодирования : x264 core 128 r2216M 198a7ea
Настройки программы : cabac=1 / ref=4 / deblock=1:-3:-3 / analyse=0x3:0x133 / me=umh / subme=10 / psy=1 / psy_rd=1.00:0.15 / mixed_ref=1 / me_range=64 / chroma_me=1 / trellis=2 / 8x8dct=1 / cqm=0 / deadzone=21,11 / fast_pskip=1 / chroma_qp_offset=-3 / threads=8 / lookahead_threads=1 / sliced_threads=0 / nr=0 / decimate=1 / interlaced=0 / bluray_compat=0 / constrained_intra=0 / bframes=12 / b_pyramid=2 / b_adapt=2 / b_bias=0 / direct=3 / weightb=1 / open_gop=0 / weightp=2 / keyint=230 / keyint_min=23 / scenecut=40 / intra_refresh=0 / rc_lookahead=40 / rc=crf / mbtree=1 / crf=16.0 / qcomp=0.60 / qpmin=10 / qpmax=69 / qpstep=4 / vbv_maxrate=40000 / vbv_bufsize=30000 / crf_max=30.0 / nal_hrd=none / ip_ratio=1.40 / aq=2:0.90
Default : Да
Forced : Нет

Аудио #1
Идентификатор : 2
Формат : AC-3
Формат/Информация : Audio Coding 3
Расширение режима : CM (complete main)
Параметр Endianness формата : Big
Идентификатор кодека : A_AC3
Вид битрейта : Постоянный
Битрейт : 384 Кбит/сек
Каналы : 6 каналов
Расположение каналов : Front: L C R, Side: L R, LFE
Частота : 48,0 КГц
Битовая глубина : 16 бит
Размер потока : 233 Мбайт (3%)
Заголовок : Дубляж (iTunes)
Язык : Russian
Default : Да
Forced : Нет

Аудио #2
Идентификатор : 3
Формат : AC-3
Формат/Информация : Audio Coding 3
Расширение режима : CM (complete main)
Параметр Endianness формата : Big
Идентификатор кодека : A_AC3
Вид битрейта : Постоянный
Битрейт : 640 Кбит/сек
Каналы : 6 каналов
Расположение каналов : Front: L C R, Side: L R, LFE
Частота : 48,0 КГц
Битовая глубина : 16 бит
Размер потока : 389 Мбайт (6%)
Заголовок : Original
Язык : Spanish
Default : Нет
Forced : Нет

Информация о торренте
Торрент:  Зарегистрирован [09 янв 2018, 08:17] Для скачивания необходимо Зарегистрироваться!



Если Вы уже зарегистрированы, то авторизуйтесь на трекере!
Статус:  
Размер:  6.74 ГБ (7 238 611 623 байт)
Приватный:  Нет (DHT включён)
Хэш:  9e0755ac9c02c58e76f8
a63006a99cd086d9c528
Здоровье:  100%
.torrent скачан:  18
Как тут качать  Правила, основные инструкции, FAQ-и



_________________


 Профиль  
 
 СообщениеДобавлено: 29 янв 2018, 12:12 
Не в сети
заглянувший
Зарегистрирован: 29 янв 2018, 07:35
Торренты: 0
Раздал: 5 ГБ 
Скачал: 0 байт 
Ратио: None.
Спасибо: 0 / 0
Сообщения: 2
Комментарии: 2
Большое спасибо за обмен. У меня есть сын, чтобы смотреть на него, я очень мультяшный.


 Профиль  
 
Показать сообщения за:  Поле сортировки  
Начать новую тему Ответить на тему  [ Сообщений: 2 ] 


Кто сейчас на трекере

Сейчас этот форум просматривают: нет зарегистрированных пользователей и гости: 3


Вы не можете начинать темы
Вы не можете отвечать на сообщения
Вы не можете редактировать свои сообщения
Вы не можете удалять свои сообщения
Вы не можете добавлять вложения

Найти:


Правообладателям

!ВНИМАНИЕ!
Ресурс не предоставляет электронные версии произведений, а занимается лишь коллекционированием и каталогизацией ссылок, присылаемых и публикуемых на форуме нашими читателями. Если вы являетесь правообладателем какого-либо представленного материала и не желаете чтобы ссылка на него находилась в нашем каталоге, свяжитесь с нами и мы незамедлительно удалим её. Файлы для обмена на трекере предоставлены пользователями сайта, и администрация не несёт ответственности за их содержание. Просьба не заливать файлы, защищенные авторскими правами, а также файлы нелегального содержания!
cron
Вверх страницы
Вниз страницы
ppkBB3cker v.2 © 2008-2011 @ PPK