3d-tracker.ru • Просмотр темы - Джулия Икс 3д / Julia X 3D


Регистрация Имя: Пароль: Запомнить Забыли пароль?



Правила форума






Начать новую тему Ответить на тему  [ Сообщений: 10 ] 
Статистика раздачи
Размер: 8.38 ГБ | Зарегистрирован: 03 ноя 2012, 19:26 | .torrent скачан: 10
Сиды: 0 [0 байт/сек]    Личи: 6 [0 байт/сек]
Автор Сообщение
 СообщениеДобавлено: 08 окт 2012, 21:36 
Не в сети
Супермодератор
Аватара пользователя
Зарегистрирован: 02 янв 2012, 21:30
Торренты: 180
Раздал: 34.39 ТБ 
Скачал: 9.59 ТБ 
Ратио: 3.584
Спасибо: 3209 / 73
Сообщения: 283
Комментарии: 97
Откуда: Рязань

Оригинальное название: Julia X 3D
Страна: США
Продолжительность: 01:32:00
Дата выхода: 2011
Жанр: триллер
Режиссёр: П.Дж. Петтьетте
В ролях: Валери Эзлинн Кевин Сорбо Алисия Ли Уиллис Джоэль Мур Винг Реймз Саксон Шарбино Грегг Браззел Мэг Рэйнс Kasi Scarbrought Corley Сара Дункан ...





О фильме: Главная героиня знакомится с мужчиной через интернет. На свидании он набрасывается на нее, насилует и клеймит буквой «Х».



Проверено на встроенном плеере LG 42PW451-ZD



Торрент обнавлен, добавлен русский звук




MediaInfo: Общее
Уникальный идентификатор : 233000248590966998264319757740329554607 (0xAF4A373052B3CE15B662F229376652AF)
Полное имя : D:\торент\Julia.X.2011.1080p.BDRip.3D.edis.3d-tracker.ru.mkv
Формат : Matroska
Версия формата : Version 2
Размер файла : 8,38 Гбайт
Продолжительность : 1 ч. 31 м.
Общий поток : 13,0 Мбит/сек
Дата кодирования : UTC 2012-11-03 14:03:46
Программа кодирования : mkvmerge v4.2.0 ('3d-tracker') сборка от Jul 28 2010 18:38:23
Библиотека кодирования : libebml v1.0.0 + libmatroska v1.0.0

Видео
Идентификатор : 1
Формат : AVC
Формат/Информация : Advanced Video Codec
Профиль формата : High@L4.1
Параметр CABAC формата : Да
Параметр ReFrames формата : 2 кадра
Идентификатор кодека : V_MPEG4/ISO/AVC
Продолжительность : 1 ч. 31 м.
Битрейт : 11,5 Мбит/сек
Ширина : 1920 пикселей
Высота : 1080 пикселей
Соотношение сторон : 16:9
Частота кадров : 23,976 кадра/сек
Цветовое пространство : YUV
Субдискретизация насыщенности : 4:2:0
Битовая глубина : 8 бит
Тип развёртки : Прогрессивная
Бит/(Пиксели*Кадры) : 0.232
Размер потока : 7,40 Гбайт (88%)
Заголовок : edis.3d-tracker.ru
Библиотека кодирования : x264 core
Язык : English
Default : Да
Forced : Нет
Основные цвета : BT.709-5, BT.1361, IEC 61966-2-4, SMPTE RP177
Характеристики трансфера : BT.709-5, BT.1361
Коэффициенты матрицы : BT.709-5, BT.1361, IEC 61966-2-4 709, SMPTE RP177

Аудио #1
Идентификатор : 2
Формат : AC-3
Формат/Информация : Audio Coding 3
Расширение режима : CM (complete main)
Параметр Endianness формата : Big
Идентификатор кодека : A_AC3
Продолжительность : 1 ч. 31 м.
Вид битрейта : Постоянный
Битрейт : 384 Кбит/сек
Каналы : 6 каналов
Расположение каналов : Front: L C R, Side: L R, LFE
Частота : 48,0 КГц
Битовая глубина : 16 бит
Метод сжатия : С потерями
Размер потока : 253 Мбайт (3%)
Заголовок : edis.3d-tracker.ru
Язык : Russian
Default : Да
Forced : Нет

Аудио #2
Идентификатор : 3
Формат : AC-3
Формат/Информация : Audio Coding 3
Расширение режима : CM (complete main)
Параметр Endianness формата : Big
Идентификатор кодека : A_AC3
Продолжительность : 1 ч. 31 м.
Вид битрейта : Постоянный
Битрейт : 128 Кбит/сек
Каналы : 6 каналов
Расположение каналов : Front: L C R, Side: L R, LFE
Частота : 48,0 КГц
Битовая глубина : 16 бит
Метод сжатия : С потерями
Размер потока : 84,2 Мбайт (1%)
Заголовок : edis.3d-tracker.ru
Язык : English
Default : Нет
Forced : Нет

Аудио #3
Идентификатор : 4
Формат : DTS
Формат/Информация : Digital Theater Systems
Идентификатор кодека : A_DTS
Продолжительность : 1 ч. 31 м.
Вид битрейта : Постоянный
Битрейт : 755 Кбит/сек
Каналы : 6 каналов
Расположение каналов : Front: L C R, Side: L R, LFE
Частота : 48,0 КГц
Битовая глубина : 16 бит
Метод сжатия : С потерями
Задержка видео : 11 мс.
Размер потока : 496 Мбайт (6%)
Заголовок : edis.3d-tracker.ru
Язык : English
Default : Нет
Forced : Нет

Меню
00:00:00.000 : en:00:00:00.000
00:08:47.819 : en:00:08:47.819
00:17:22.333 : en:00:17:22.333
00:22:38.899 : en:00:22:38.899
00:31:29.596 : en:00:31:29.596
00:40:31.304 : en:00:40:31.304
00:46:01.717 : en:00:46:01.717
00:52:41.450 : en:00:52:41.450
00:59:38.950 : en:00:59:38.950
01:09:19.781 : en:01:09:19.781
01:15:26.230 : en:01:15:26.230
01:22:01.125 : en:01:22:01.125

Перевод: Оригинал
Контейнер: mkv
Формат аудио: AC3
Язык 1: английский
Язык 2: английский
Формат видео: x264
Качество видео: BDrip
Размер видео: 1920×1080
формат 3D: Half SideBySide / Горизонтальная анаморфная стереопара
Информация о торренте
Торрент:  Зарегистрирован [03 ноя 2012, 19:26] Для скачивания необходимо Зарегистрироваться!



Если Вы уже зарегистрированы, то авторизуйтесь на трекере!
Статус:  
Размер:  8.38 ГБ (8 996 143 059 байт)
Приватный:  Нет (DHT включён)
Хэш:  cec0e320cc090651fd68
a90630a8d83cdadf024d
Здоровье:  ???%
.torrent скачан:  10
Как тут качать  Правила, основные инструкции, FAQ-и



_________________

Мои раздачи


 Профиль  
 
 СообщениеДобавлено: 08 окт 2012, 22:14 
Не в сети
VIP аплоадер
Аватара пользователя
Зарегистрирован: 04 окт 2012, 22:47
Торренты: 6
Раздал: 1.51 ТБ 
Скачал: 165.36 ГБ 
Ратио: 9.468
Спасибо: 86 / 12
Сообщения: 20
Комментарии: 14
Откуда: Омск
Как фильмец ?!

_________________


 Профиль  
 
 СообщениеДобавлено: 08 окт 2012, 22:45 
Не в сети
Супермодератор
Аватара пользователя
Зарегистрирован: 02 янв 2012, 21:30
Торренты: 180
Раздал: 34.39 ТБ 
Скачал: 9.59 ТБ 
Ратио: 3.584
Спасибо: 3209 / 73
Сообщения: 283
Комментарии: 97
Откуда: Рязань
Фильм не плохой, перевода нет, будет время, озвучу

_________________

Мои раздачи


 Профиль  
 
 СообщениеДобавлено: 09 окт 2012, 19:09 
Не в сети
VIP аплоадер
Аватара пользователя
Зарегистрирован: 04 окт 2012, 22:47
Торренты: 6
Раздал: 1.51 ТБ 
Скачал: 165.36 ГБ 
Ратио: 9.468
Спасибо: 86 / 12
Сообщения: 20
Комментарии: 14
Откуда: Омск
Будем ждать озвучку. Кстати а почему тут нету раздела под 3D игры ?!

_________________


 Профиль  
 
 СообщениеДобавлено: 09 окт 2012, 19:23 
Не в сети
Супермодератор
Аватара пользователя
Зарегистрирован: 02 янв 2012, 21:30
Торренты: 180
Раздал: 34.39 ТБ 
Скачал: 9.59 ТБ 
Ратио: 3.584
Спасибо: 3209 / 73
Сообщения: 283
Комментарии: 97
Откуда: Рязань
Игорь Недеров писал(а):
Будем ждать озвучку. Кстати а почему тут нету раздела под 3D игры ?!

Трекер заточен под фильмы, но есть раздел остальное

_________________

Мои раздачи


 Профиль  
 
 СообщениеДобавлено: 05 ноя 2012, 16:45 
Не в сети
заглянувший
Зарегистрирован: 27 окт 2012, 03:18
Торренты: 0
Раздал: 438.85 ГБ 
Скачал: 365.44 ГБ 
Ратио: 1.201
Спасибо: 0 / 3
Сообщения: 3
Комментарии: 2
edis писал(а):
Фильм не плохой, перевода нет, будет время, озвучу

Извините, вы случаем не озвучили? Очень посмотреть охота...


 Профиль  
 
 СообщениеДобавлено: 05 ноя 2012, 17:51 
Не в сети
Супермодератор
Аватара пользователя
Зарегистрирован: 02 янв 2012, 21:30
Торренты: 180
Раздал: 34.39 ТБ 
Скачал: 9.59 ТБ 
Ратио: 3.584
Спасибо: 3209 / 73
Сообщения: 283
Комментарии: 97
Откуда: Рязань
gogidzan писал(а):
edis писал(а):
Фильм не плохой, перевода нет, будет время, озвучу

Извините, вы случаем не озвучили? Очень посмотреть охота...

Озвучка не наша ViruseProject

_________________

Мои раздачи


 Профиль  
 
 СообщениеДобавлено: 10 ноя 2012, 18:58 
Не в сети
заглянувший
Зарегистрирован: 27 окт 2012, 03:18
Торренты: 0
Раздал: 438.85 ГБ 
Скачал: 365.44 ГБ 
Ратио: 1.201
Спасибо: 0 / 3
Сообщения: 3
Комментарии: 2
:ps_ih: Фильм :)-(: За релиз Спасибо!


 Профиль  
 
 СообщениеДобавлено: 02 ноя 2013, 19:51 
Не в сети
заглянувший
Зарегистрирован: 15 сен 2013, 22:16
Торренты: 0
Раздал: 171.34 ГБ 
Скачал: 45.71 ГБ 
Ратио: 3.748
Спасибо: 0 / 0
Сообщения: 1
Комментарии: 1
Ау, где Вы, скачавшие? Сколько еще стоять на подключении.


 Профиль  
 
 СообщениеДобавлено: 02 ноя 2013, 21:07 
Не в сети
Администратор
Аватара пользователя
Зарегистрирован: 17 дек 2012, 15:37
Торренты: 790
Раздал: 91.77 ТБ 
Скачал: 7.53 ТБ 
Ратио: 12.190
Спасибо: 3706 / 0
Сообщения: 1217
Комментарии: 389
Откуда: Great Ukraine
alepol писал(а):
Ау, где Вы, скачавшие? Сколько еще стоять на подключении.

Скачать можно здесь - viewtopic.php?f=29&t=788

_________________





 Профиль  
 
Показать сообщения за:  Поле сортировки  
Начать новую тему Ответить на тему  [ Сообщений: 10 ] 


Кто сейчас на трекере

Сейчас этот форум просматривают: нет зарегистрированных пользователей и гости: 1


Вы не можете начинать темы
Вы не можете отвечать на сообщения
Вы не можете редактировать свои сообщения
Вы не можете удалять свои сообщения
Вы не можете добавлять вложения

Найти:


Правообладателям

Проверить тИЦ и PR
!ВНИМАНИЕ!
Ресурс не предоставляет электронные версии произведений, а занимается лишь коллекционированием и каталогизацией ссылок, присылаемых и публикуемых на форуме нашими читателями. Если вы являетесь правообладателем какого-либо представленного материала и не желаете чтобы ссылка на него находилась в нашем каталоге, свяжитесь с нами и мы незамедлительно удалим её. Файлы для обмена на трекере предоставлены пользователями сайта, и администрация не несёт ответственности за их содержание. Просьба не заливать файлы, защищенные авторскими правами, а также файлы нелегального содержания!
cron
Вверх страницы
Вниз страницы
ppkBB3cker v.2 © 2008-2011 @ PPK